  0
SECTION
  2
HEADER
  9
$ACADVER
  1
AC1024
  9
$ACADMAINTVER
 70
   226
  9
$DWGCODEPAGE
  3
ANSI_1252
  9
$LASTSAVEDBY
  1
bmaiden
  9
$INSBASE
 10
0.0
 20
0.0
 30
0.0
  9
$EXTMIN
 10
-16.11274268153092
 20
2.738104359028966
 30
0.0
  9
$EXTMAX
 10
-5.446075384048427
 20
10.90477165651146
 30
0.0
  9
$LIMMIN
 10
0.0
 20
0.0
  9
$LIMMAX
 10
12.0
 20
9.0
  9
$ORTHOMODE
 70
     0
  9
$REGENMODE
 70
     1
  9
$FILLMODE
 70
     1
  9
$QTEXTMODE
 70
     0
  9
$MIRRTEXT
 70
     1
  9
$LTSCALE
 40
1.0
  9
$ATTMODE
 70
     1
  9
$TEXTSIZE
 40
0.2
  9
$TRACEWID
 40
0.05
  9
$TEXTSTYLE
  7
Standard
  9
$CLAYER
  8
0
  9
$CELTYPE
  6
ByLayer
  9
$CECOLOR
 62
   256
  9
$CELTSCALE
 40
1.0
  9
$DISPSILH
 70
     0
  9
$DIMSCALE
 40
1.0
  9
$DIMASZ
 40
0.18
  9
$DIMEXO
 40
0.0625
  9
$DIMDLI
 40
0.38
  9
$DIMRND
 40
0.0
  9
$DIMDLE
 40
0.0
  9
$DIMEXE
 40
0.18
  9
$DIMTP
 40
0.0
  9
$DIMTM
 40
0.0
  9
$DIMTXT
 40
0.18
  9
$DIMCEN
 40
0.09
  9
$DIMTSZ
 40
0.0
  9
$DIMTOL
 70
     0
  9
$DIMLIM
 70
     0
  9
$DIMTIH
 70
     1
  9
$DIMTOH
 70
     1
  9
$DIMSE1
 70
     0
  9
$DIMSE2
 70
     0
  9
$DIMTAD
 70
     0
  9
$DIMZIN
 70
     0
  9
$DIMBLK
  1

  9
$DIMASO
 70
     1
  9
$DIMSHO
 70
     1
  9
$DIMPOST
  1

  9
$DIMAPOST
  1

  9
$DIMALT
 70
     0
  9
$DIMALTD
 70
     2
  9
$DIMALTF
 40
25.4
  9
$DIMLFAC
 40
1.0
  9
$DIMTOFL
 70
     0
  9
$DIMTVP
 40
0.0
  9
$DIMTIX
 70
     0
  9
$DIMSOXD
 70
     0
  9
$DIMSAH
 70
     0
  9
$DIMBLK1
  1

  9
$DIMBLK2
  1

  9
$DIMSTYLE
  2
Standard
  9
$DIMCLRD
 70
     0
  9
$DIMCLRE
 70
     0
  9
$DIMCLRT
 70
     0
  9
$DIMTFAC
 40
1.0
  9
$DIMGAP
 40
0.09
  9
$DIMJUST
 70
     0
  9
$DIMSD1
 70
     0
  9
$DIMSD2
 70
     0
  9
$DIMTOLJ
 70
     1
  9
$DIMTZIN
 70
     0
  9
$DIMALTZ
 70
     0
  9
$DIMALTTZ
 70
     0
  9
$DIMUPT
 70
     0
  9
$DIMDEC
 70
     4
  9
$DIMTDEC
 70
     4
  9
$DIMALTU
 70
     2
  9
$DIMALTTD
 70
     2
  9
$DIMTXSTY
  7
Standard
  9
$DIMAUNIT
 70
     0
  9
$DIMADEC
 70
     0
  9
$DIMALTRND
 40
0.0
  9
$DIMAZIN
 70
     0
  9
$DIMDSEP
 70
    46
  9
$DIMATFIT
 70
     3
  9
$DIMFRAC
 70
     0
  9
$DIMLDRBLK
  1

  9
$DIMLUNIT
 70
     2
  9
$DIMLWD
 70
    -2
  9
$DIMLWE
 70
    -2
  9
$DIMTMOVE
 70
     0
  9
$DIMFXL
 40
1.0
  9
$DIMFXLON
 70
     0
  9
$DIMJOGANG
 40
0.7853981633974483
  9
$DIMTFILL
 70
     0
  9
$DIMTFILLCLR
 70
     0
  9
$DIMARCSYM
 70
     0
  9
$DIMLTYPE
  6

  9
$DIMLTEX1
  6

  9
$DIMLTEX2
  6

  9
$DIMTXTDIRECTION
 70
     0
  9
$LUNITS
 70
     2
  9
$LUPREC
 70
     4
  9
$SKETCHINC
 40
0.1
  9
$FILLETRAD
 40
0.5
  9
$AUNITS
 70
     0
  9
$AUPREC
 70
     0
  9
$MENU
  1
.
  9
$ELEVATION
 40
0.0
  9
$PELEVATION
 40
0.0
  9
$THICKNESS
 40
0.0
  9
$LIMCHECK
 70
     0
  9
$CHAMFERA
 40
0.0
  9
$CHAMFERB
 40
0.0
  9
$CHAMFERC
 40
0.0
  9
$CHAMFERD
 40
0.0
  9
$SKPOLY
 70
     0
  9
$TDCREATE
 40
2459157.584097223
  9
$TDUCREATE
 40
2459157.792433819
  9
$TDUPDATE
 40
2459164.352951389
  9
$TDUUPDATE
 40
2459164.561284723
  9
$TDINDWG
 40
0.0010648264
  9
$TDUSRTIMER
 40
0.0010648264
  9
$USRTIMER
 70
     1
  9
$ANGBASE
 50
0.0
  9
$ANGDIR
 70
     0
  9
$PDMODE
 70
     0
  9
$PDSIZE
 40
0.0
  9
$PLINEWID
 40
0.0
  9
$SPLFRAME
 70
     0
  9
$SPLINETYPE
 70
     6
  9
$SPLINESEGS
 70
     8
  9
$HANDSEED
  5
96F
  9
$SURFTAB1
 70
     6
  9
$SURFTAB2
 70
     6
  9
$SURFTYPE
 70
     6
  9
$SURFU
 70
     6
  9
$SURFV
 70
     6
  9
$UCSBASE
  2

  9
$UCSNAME
  2

  9
$UCSORG
 10
0.0
 20
0.0
 30
0.0
  9
$UCSXDIR
 10
1.0
 20
0.0
 30
0.0
  9
$UCSYDIR
 10
0.0
 20
1.0
 30
0.0
  9
$UCSORTHOREF
  2

  9
$UCSORTHOVIEW
 70
     0
  9
$UCSORGTOP
 10
0.0
 20
0.0
 30
0.0
  9
$UCSORGBOTTOM
 10
0.0
 20
0.0
 30
0.0
  9
$UCSORGLEFT
 10
0.0
 20
0.0
 30
0.0
  9
$UCSORGRIGHT
 10
0.0
 20
0.0
 30
0.0
  9
$UCSORGFRONT
 10
0.0
 20
0.0
 30
0.0
  9
$UCSORGBACK
 10
0.0
 20
0.0
 30
0.0
  9
$PUCSBASE
  2

  9
$PUCSNAME
  2

  9
$PUCSORG
 10
0.0
 20
0.0
 30
0.0
  9
$PUCSXDIR
 10
1.0
 20
0.0
 30
0.0
  9
$PUCSYDIR
 10
0.0
 20
1.0
 30
0.0
  9
$PUCSORTHOREF
  2

  9
$PUCSORTHOVIEW
 70
     0
  9
$PUCSORGTOP
 10
0.0
 20
0.0
 30
0.0
  9
$PUCSORGBOTTOM
 10
0.0
 20
0.0
 30
0.0
  9
$PUCSORGLEFT
 10
0.0
 20
0.0
 30
0.0
  9
$PUCSORGRIGHT
 10
0.0
 20
0.0
 30
0.0
  9
$PUCSORGFRONT
 10
0.0
 20
0.0
 30
0.0
  9
$PUCSORGBACK
 10
0.0
 20
0.0
 30
0.0
  9
$USERI1
 70
     0
  9
$USERI2
 70
     0
  9
$USERI3
 70
     0
  9
$USERI4
 70
     0
  9
$USERI5
 70
     0
  9
$USERR1
 40
0.0
  9
$USERR2
 40
0.0
  9
$USERR3
 40
0.0
  9
$USERR4
 40
0.0
  9
$USERR5
 40
0.0
  9
$WORLDVIEW
 70
     1
  9
$SHADEDGE
 70
     3
  9
$SHADEDIF
 70
    70
  9
$TILEMODE
 70
     1
  9
$MAXACTVP
 70
    64
  9
$PINSBASE
 10
0.0
 20
0.0
 30
0.0
  9
$PLIMCHECK
 70
     0
  9
$PEXTMIN
 10
-502.251953125
 20
0.1666660308837891
 30
0.0
  9
$PEXTMAX
 10
10.83333396911621
 20
8.333333328366279
 30
0.0
  9
$PLIMMIN
 10
-0.25
 20
-0.25
  9
$PLIMMAX
 10
10.75
 20
8.25
  9
$UNITMODE
 70
     0
  9
$VISRETAIN
 70
     1
  9
$PLINEGEN
 70
     0
  9
$PSLTSCALE
 70
     1
  9
$TREEDEPTH
 70
  3020
  9
$CMLSTYLE
  2
Standard
  9
$CMLJUST
 70
     0
  9
$CMLSCALE
 40
1.0
  9
$PROXYGRAPHICS
 70
     1
  9
$MEASUREMENT
 70
     0
  9
$CELWEIGHT
370
    -1
  9
$ENDCAPS
280
     0
  9
$JOINSTYLE
280
     0
  9
$LWDISPLAY
290
     1
  9
$INSUNITS
 70
     1
  9
$HYPERLINKBASE
  1

  9
$STYLESHEET
  1

  9
$XEDIT
290
     1
  9
$CEPSNTYPE
380
     0
  9
$PSTYLEMODE
290
     1
  9
$FINGERPRINTGUID
  2
{e49efd6d-3139-44a4-886a-76c3df378061}
  9
$VERSIONGUID
  2
{38F7D108-DD8A-F446-BC24-EECB83629B80}
  9
$EXTNAMES
290
     1
  9
$PSVPSCALE
 40
0.0
  9
$OLESTARTUP
290
     0
  9
$SORTENTS
280
   127
  9
$INDEXCTL
280
     0
  9
$HIDETEXT
280
     1
  9
$XCLIPFRAME
280
     2
  9
$HALOGAP
280
     0
  9
$OBSCOLOR
 70
   257
  9
$OBSLTYPE
280
     0
  9
$INTERSECTIONDISPLAY
280
     0
  9
$INTERSECTIONCOLOR
 70
   257
  9
$DIMASSOC
280
     2
  9
$PROJECTNAME
  1

  9
$CAMERADISPLAY
290
     0
  9
$LENSLENGTH
 40
50.0
  9
$CAMERAHEIGHT
 40
0.0
  9
$STEPSPERSEC
 40
2.0
  9
$STEPSIZE
 40
6.0
  9
$3DDWFPREC
 40
2.0
  9
$PSOLWIDTH
 40
0.25
  9
$PSOLHEIGHT
 40
4.0
  9
$LOFTANG1
 40
1.570796326794896
  9
$LOFTANG2
 40
1.570796326794896
  9
$LOFTMAG1
 40
0.0
  9
$LOFTMAG2
 40
0.0
  9
$LOFTPARAM
 70
     7
  9
$LOFTNORMALS
280
     1
  9
$LATITUDE
 40
37.795
  9
$LONGITUDE
 40
-122.394
  9
$NORTHDIRECTION
 40
0.0
  9
$TIMEZONE
 70
 -8000
  9
$LIGHTGLYPHDISPLAY
280
     1
  9
$TILEMODELIGHTSYNCH
280
     1
  9
$CMATERIAL
347
44
  9
$SOLIDHIST
280
     0
  9
$SHOWHIST
280
     1
  9
$DWFFRAME
280
     2
  9
$DGNFRAME
280
     2
  9
$REALWORLDSCALE
290
     1
  9
$INTERFERECOLOR
 62
   256
  9
$INTERFEREOBJVS
345
33
  9
$INTERFEREVPVS
346
30
  9
$CSHADOW
280
     0
  9
$SHADOWPLANELOCATION
 40
0.0
  0
ENDSEC
  0
SECTION
  2
CLASSES
  0
CLASS
  1
ACDBDICTIONARYWDFLT
  2
AcDbDictionaryWithDefault
  3
ObjectDBX Classes
 90
        0
 91
        1
280
     0
281
     0
  0
CLASS
  1
VISUALSTYLE
  2
AcDbVisualStyle
  3
ObjectDBX Classes
 90
     4095
 91
       24
280
     0
281
     0
  0
CLASS
  1
MATERIAL
  2
AcDbMaterial
  3
ObjectDBX Classes
 90
     1153
 91
        3
280
     0
281
     0
  0
CLASS
  1
SCALE
  2
AcDbScale
  3
ObjectDBX Classes
 90
     1153
 91
       33
280
     0
281
     0
  0
CLASS
  1
TABLESTYLE
  2
AcDbTableStyle
  3
ObjectDBX Classes
 90
     4095
 91
        1
280
     0
281
     0
  0
CLASS
  1
MLEADERSTYLE
  2
AcDbMLeaderStyle
  3
ACDB_MLEADERSTYLE_CLASS
 90
     4095
 91
        1
280
     0
281
     0
  0
CLASS
  1
SUN
  2
AcDbSun
  3
SCENEOE
 90
     1153
 91
        3
280
     0
281
     0
  0
CLASS
  1
RASTERVARIABLES
  2
AcDbRasterVariables
  3
ISM
 90
        0
 91
        1
280
     0
281
     0
  0
CLASS
  1
IMAGEDEF
  2
AcDbRasterImageDef
  3
ISM
 90
        0
 91
        2
280
     0
281
     0
  0
CLASS
  1
IMAGE
  2
AcDbRasterImage
  3
ISM
 90
     2175
 91
        4
280
     0
281
     1
  0
CLASS
  1
IMAGEDEF_REACTOR
  2
AcDbRasterImageDefReactor
  3
ISM
 90
        1
 91
        4
280
     0
281
     0
  0
CLASS
  1
DICTIONARYVAR
  2
AcDbDictionaryVar
  3
ObjectDBX Classes
 90
        0
 91
        5
280
     0
281
     0
  0
CLASS
  1
ACDBSECTIONVIEWSTYLE
  2
AcDbSectionViewStyle
  3
ObjectDBX Classes
 90
     1025
 91
        1
280
     0
281
     0
  0
CLASS
  1
ACDBDETAILVIEWSTYLE
  2
AcDbDetailViewStyle
  3
ObjectDBX Classes
 90
     1025
 91
        1
280
     0
281
     0
  0
CLASS
  1
EXACXREFPANELOBJECT
  2
ExAcXREFPanelObject
  3
EXAC_ESW
 90
     1025
 91
        1
280
     0
281
     0
  0
CLASS
  1
NPOCOLLECTION
  2
AcDbImpNonPersistentObjectsCollection
  3
ObjectDBX Classes
 90
     1153
 91
        1
280
     0
281
     0
  0
CLASS
  1
CELLSTYLEMAP
  2
AcDbCellStyleMap
  3
ObjectDBX Classes
 90
     1152
 91
        1
280
     0
281
     0
  0
ENDSEC
  0
SECTION
  2
TABLES
  0
TABLE
  2
VPORT
  5
8
330
0
100
AcDbSymbolTable
 70
     1
  0
VPORT
  5
29
330
8
100
AcDbSymbolTableRecord
100
AcDbViewportTableRecord
  2
*Active
 70
     0
 10
0.0
 20
0.0
 11
1.0
 21
1.0
 12
-6.614212359958631
 22
6.038405275127828
 13
0.0
 23
0.0
 14
0.5
 24
0.5
 15
0.5
 25
0.5
 16
0.0
 26
0.0
 36
1.0
 17
0.0
 27
0.0
 37
0.0
 40
15.56423001310489
 41
2.292712066905614
 42
50.0
 43
0.0
 44
0.0
 50
0.0
 51
0.0
 71
     0
 72
   100
 73
     1
 74
     3
 75
     0
 76
     0
 77
     0
 78
     0
281
     0
 65
     1
110
0.0
120
0.0
130
0.0
111
1.0
121
0.0
131
0.0
112
0.0
122
1.0
132
0.0
 79
     0
146
0.0
348
2F
 60
     3
 61
     5
292
     1
282
     1
141
0.0
142
0.0
 63
   250
361
6D
1001
ACAD_NAV_VCDISPLAY
1070
     3
  0
ENDTAB
  0
TABLE
  2
LTYPE
  5
5
330
0
100
AcDbSymbolTable
 70
     2
  0
LTYPE
  5
14
330
5
100
AcDbSymbolTableRecord
100
AcDbLinetypeTableRecord
  2
ByBlock
 70
     0
  3

 72
    65
 73
     0
 40
0.0
  0
LTYPE
  5
15
330
5
100
AcDbSymbolTableRecord
100
AcDbLinetypeTableRecord
  2
ByLayer
 70
     0
  3

 72
    65
 73
     0
 40
0.0
  0
LTYPE
  5
16
330
5
100
AcDbSymbolTableRecord
100
AcDbLinetypeTableRecord
  2
Continuous
 70
     0
  3
Solid line
 72
    65
 73
     0
 40
0.0
  0
LTYPE
  5
68C
330
5
100
AcDbSymbolTableRecord
100
AcDbLinetypeTableRecord
  2
DASHED
 70
     0
  3
Dashed __ __ __ __ __ __ __ __ __ __ __ __ __ _
 72
    65
 73
     2
 40
0.75
 49
0.5
 74
     0
 49
-0.25
 74
     0
  0
ENDTAB
  0
TABLE
  2
LAYER
  5
2
102
{ACAD_XDICTIONARY
360
752
102
}
330
0
100
AcDbSymbolTable
 70
     6
  0
LAYER
  5
10
330
2
100
AcDbSymbolTableRecord
100
AcDbLayerTableRecord
  2
0
 70
     0
 62
     7
  6
Continuous
370
    -3
390
F
347
46
  0
LAYER
  5
A7
330
2
100
AcDbSymbolTableRecord
100
AcDbLayerTableRecord
  2
On Every Page
 70
     0
 62
     7
  6
Continuous
370
    -3
390
F
347
46
  0
LAYER
  5
A8
330
2
100
AcDbSymbolTableRecord
100
AcDbLayerTableRecord
  2
Default
 70
     0
 62
     7
  6
Continuous
370
    -3
390
F
347
46
  0
LAYER
  5
B9
330
2
100
AcDbSymbolTableRecord
100
AcDbLayerTableRecord
  2
Images
 70
     0
 62
     7
  6
Continuous
370
    -3
390
F
347
46
  0
LAYER
  5
D3
330
2
100
AcDbSymbolTableRecord
100
AcDbLayerTableRecord
  2
Viewports
 70
     0
 62
    -7
  6
Continuous
290
     0
370
    -3
390
F
347
46
  0
LAYER
  5
662
330
2
100
AcDbSymbolTableRecord
100
AcDbLayerTableRecord
  2
Defpoints
 70
     0
 62
     7
  6
Continuous
290
     0
370
    -3
390
F
347
46
  0
ENDTAB
  0
TABLE
  2
STYLE
  5
3
330
0
100
AcDbSymbolTable
 70
     3
  0
STYLE
  5
11
330
3
100
AcDbSymbolTableRecord
100
AcDbTextStyleTableRecord
  2
Standard
 70
     0
 40
0.0
 41
1.0
 50
0.0
 71
     0
 42
0.2
  3
txt
  4

  0
STYLE
  5
CA
330
3
100
AcDbSymbolTableRecord
100
AcDbTextStyleTableRecord
  2
RockwellBold
 70
     0
 40
0.0
 41
1.0
 50
0.0
 71
     0
 42
0.2
  3
ROCKB.TTF
  4

1001
ACAD
1000
Rockwell
1071
 33554432
  0
STYLE
  5
CE
330
3
100
AcDbSymbolTableRecord
100
AcDbTextStyleTableRecord
  2
Montserrat
 70
     0
 40
0.0
 41
1.0
 50
0.0
 71
     0
 42
0.2
  3

  4

1001
ACAD
1000
Montserrat
1071
        0
  0
ENDTAB
  0
TABLE
  2
VIEW
  5
6
330
0
100
AcDbSymbolTable
 70
     0
  0
ENDTAB
  0
TABLE
  2
UCS
  5
7
330
0
100
AcDbSymbolTable
 70
     0
  0
ENDTAB
  0
TABLE
  2
APPID
  5
9
330
0
100
AcDbSymbolTable
 70
     2
  0
APPID
  5
12
330
9
100
AcDbSymbolTableRecord
100
AcDbRegAppTableRecord
  2
ACAD
 70
     0
  0
APPID
  5
8E5
330
9
100
AcDbSymbolTableRecord
100
AcDbRegAppTableRecord
  2
ACAD_NAV_VCDISPLAY
 70
     0
  0
ENDTAB
  0
TABLE
  2
DIMSTYLE
  5
A
330
0
100
AcDbSymbolTable
 70
     2
100
AcDbDimStyleTable
 71
     0
  0
DIMSTYLE
105
27
330
A
100
AcDbSymbolTableRecord
100
AcDbDimStyleTableRecord
  2
Standard
 70
     0
340
11
  0
DIMSTYLE
105
660
102
{ACAD_REACTORS
330
661
330
6B8
330
6C7
330
6D5
330
866
330
868
330
869
102
}
330
A
100
AcDbSymbolTableRecord
100
AcDbDimStyleTableRecord
  2
DS_0
 70
     0
  0
ENDTAB
  0
TABLE
  2
BLOCK_RECORD
  5
1
330
0
100
AcDbSymbolTable
 70
    25
  0
BLOCK_RECORD
  5
1F
330
1
100
AcDbSymbolTableRecord
100
AcDbBlockTableRecord
  2
*Model_Space
340
22
 70
     0
280
     1
281
     0
  0
BLOCK_RECORD
  5
A1
330
1
100
AcDbSymbolTableRecord
100
AcDbBlockTableRecord
  2
*Paper_Space
340
A2
 70
     0
280
     1
281
     0
  0
BLOCK_RECORD
  5
6E
330
1
100
AcDbSymbolTableRecord
100
AcDbBlockTableRecord
  2
_DiamondBlank
340
0
 70
     0
280
     1
281
     0
  0
BLOCK_RECORD
  5
75
330
1
100
AcDbSymbolTableRecord
100
AcDbBlockTableRecord
  2
_DiamondFilled
340
0
 70
     0
280
     1
281
     0
  0
BLOCK_RECORD
  5
79
330
1
100
AcDbSymbolTableRecord
100
AcDbBlockTableRecord
  2
_OpenRight
340
0
 70
     0
280
     1
281
     0
  0
BLOCK_RECORD
  5
7F
330
1
100
AcDbSymbolTableRecord
100
AcDbBlockTableRecord
  2
_Open120
340
0
 70
     0
280
     1
281
     0
  0
BLOCK_RECORD
  5
85
330
1
100
AcDbSymbolTableRecord
100
AcDbBlockTableRecord
  2
_TriangleBlank
340
0
 70
     0
280
     1
281
     0
  0
BLOCK_RECORD
  5
8B
330
1
100
AcDbSymbolTableRecord
100
AcDbBlockTableRecord
  2
_TriangleFilled
340
0
 70
     0
280
     1
281
     0
  0
BLOCK_RECORD
  5
8F
330
1
100
AcDbSymbolTableRecord
100
AcDbBlockTableRecord
  2
_SlashLeft
340
0
 70
     0
280
     1
281
     0
  0
BLOCK_RECORD
  5
94
330
1
100
AcDbSymbolTableRecord
100
AcDbBlockTableRecord
  2
_CustomBlank
340
0
 70
     0
280
     1
281
     0
  0
BLOCK_RECORD
  5
97
330
1
100
AcDbSymbolTableRecord
100
AcDbBlockTableRecord
  2
_Star
340
0
 70
     0
280
     1
281
     0
  0
BLOCK_RECORD
  5
663
330
1
100
AcDbSymbolTableRecord
100
AcDbBlockTableRecord
  2
*D9
340
0
 70
     0
280
     1
281
     0
  0
BLOCK_RECORD
  5
670
330
1
100
AcDbSymbolTableRecord
100
AcDbBlockTableRecord
  2
ANNO_0
340
0
102
{BLKREFS
331
674
331
831
102
}
 70
     0
280
     1
281
     0
  0
BLOCK_RECORD
  5
676
330
1
100
AcDbSymbolTableRecord
100
AcDbBlockTableRecord
  2
ANNO_1
340
0
102
{BLKREFS
331
67A
331
833
102
}
 70
     0
280
     1
281
     0
  0
BLOCK_RECORD
  5
67C
330
1
100
AcDbSymbolTableRecord
100
AcDbBlockTableRecord
  2
ANNO_2
340
0
102
{BLKREFS
331
680
331
835
102
}
 70
     0
280
     1
281
     0
  0
BLOCK_RECORD
  5
686
330
1
100
AcDbSymbolTableRecord
100
AcDbBlockTableRecord
  2
ANNO_3
340
0
102
{BLKREFS
331
68A
331
83B
102
}
 70
     0
280
     1
281
     0
  0
BLOCK_RECORD
  5
6B9
330
1
100
AcDbSymbolTableRecord
100
AcDbBlockTableRecord
  2
*D14
340
0
 70
     0
280
     1
281
     0
  0
BLOCK_RECORD
  5
6C8
330
1
100
AcDbSymbolTableRecord
100
AcDbBlockTableRecord
  2
*D15
340
0
 70
     0
280
     1
281
     0
  0
BLOCK_RECORD
  5
6D6
330
1
100
AcDbSymbolTableRecord
100
AcDbBlockTableRecord
  2
*D16
340
0
 70
     0
280
     1
281
     0
  0
BLOCK_RECORD
  5
725
330
1
100
AcDbSymbolTableRecord
100
AcDbBlockTableRecord
  2
ANNO_4
340
0
102
{BLKREFS
331
88F
331
729
102
}
 70
     0
280
     1
281
     0
  0
BLOCK_RECORD
  5
72B
330
1
100
AcDbSymbolTableRecord
100
AcDbBlockTableRecord
  2
ANNO_5
340
0
102
{BLKREFS
331
891
331
72F
102
}
 70
     0
280
     1
281
     0
  0
BLOCK_RECORD
  5
89B
330
1
100
AcDbSymbolTableRecord
100
AcDbBlockTableRecord
  2
*D22
340
0
 70
     0
280
     1
281
     0
  0
BLOCK_RECORD
  5
8A7
330
1
100
AcDbSymbolTableRecord
100
AcDbBlockTableRecord
  2
*D23
340
0
 70
     0
280
     1
281
     0
  0
BLOCK_RECORD
  5
8B4
330
1
100
AcDbSymbolTableRecord
100
AcDbBlockTableRecord
  2
*D24
340
0
 70
     0
280
     1
281
     0
  0
ENDTAB
  0
ENDSEC
  0
SECTION
  2
BLOCKS
  0
BLOCK
  5
20
330
1F
100
AcDbEntity
  8
0
100
AcDbBlockBegin
  2
*Model_Space
 70
     0
 10
0.0
 20
0.0
 30
0.0
  3
*Model_Space
  1

  0
ENDBLK
  5
21
330
1F
100
AcDbEntity
  8
0
100
AcDbBlockEnd
  0
BLOCK
  5
A3
330
A1
100
AcDbEntity
 67
     1
  8
0
100
AcDbBlockBegin
  2
*Paper_Space
 70
     0
 10
0.0
 20
0.0
 30
0.0
  3
*Paper_Space
  1

  0
ENDBLK
  5
A4
330
A1
100
AcDbEntity
 67
     1
  8
0
100
AcDbBlockEnd
  0
BLOCK
  5
6F
330
6E
100
AcDbEntity
  8
0
100
AcDbBlockBegin
  2
_DiamondBlank
 70
     0
 10
0.0
 20
0.0
 30
0.0
  3
_DiamondBlank
  1

  0
LINE
  5
71
330
6E
100
AcDbEntity
  8
0
  6
ByBlock
 62
     0
370
    -2
100
AcDbLine
 10
0.0
 20
0.0
 30
0.0
 11
-0.5
 21
0.3333333333333333
 31
0.0
  0
LINE
  5
72
330
6E
100
AcDbEntity
  8
0
  6
ByBlock
 62
     0
370
    -2
100
AcDbLine
 10
0.0
 20
0.0
 30
0.0
 11
-0.5
 21
-0.3333333333333333
 31
0.0
  0
LINE
  5
73
330
6E
100
AcDbEntity
  8
0
  6
ByBlock
 62
     0
370
    -2
100
AcDbLine
 10
-0.5
 20
0.3333333333333333
 30
0.0
 11
-1.0
 21
0.0
 31
0.0
  0
LINE
  5
74
330
6E
100
AcDbEntity
  8
0
  6
ByBlock
 62
     0
370
    -2
100
AcDbLine
 10
-0.5
 20
-0.3333333333333333
 30
0.0
 11
-1.0
 21
0.0
 31
0.0
  0
ENDBLK
  5
70
330
6E
100
AcDbEntity
  8
0
100
AcDbBlockEnd
  0
BLOCK
  5
76
330
75
100
AcDbEntity
  8
0
100
AcDbBlockBegin
  2
_DiamondFilled
 70
     0
 10
0.0
 20
0.0
 30
0.0
  3
_DiamondFilled
  1

  0
SOLID
  5
78
330
75
100
AcDbEntity
  8
0
  6
ByBlock
 62
     0
370
    -2
100
AcDbTrace
 10
0.0
 20
0.0
 30
0.0
 11
-0.5
 21
-0.3333333333333333
 31
0.0
 12
-0.5
 22
0.3333333333333333
 32
0.0
 13
-1.0
 23
0.0
 33
0.0
  0
ENDBLK
  5
77
330
75
100
AcDbEntity
  8
0
100
AcDbBlockEnd
  0
BLOCK
  5
7A
330
79
100
AcDbEntity
  8
0
100
AcDbBlockBegin
  2
_OpenRight
 70
     0
 10
0.0
 20
0.0
 30
0.0
  3
_OpenRight
  1

  0
LINE
  5
7C
330
79
100
AcDbEntity
  8
0
  6
ByBlock
 62
     0
370
    -2
100
AcDbLine
 10
0.0
 20
0.0
 30
0.0
 11
-1.0
 21
1.0
 31
0.0
  0
LINE
  5
7D
330
79
100
AcDbEntity
  8
0
  6
ByBlock
 62
     0
370
    -2
100
AcDbLine
 10
0.0
 20
0.0
 30
0.0
 11
-1.0
 21
0.0
 31
0.0
  0
LINE
  5
7E
330
79
100
AcDbEntity
  8
0
  6
ByBlock
 62
     0
370
    -2
100
AcDbLine
 10
0.0
 20
0.0
 30
0.0
 11
-1.0
 21
-1.0
 31
0.0
  0
ENDBLK
  5
7B
330
79
100
AcDbEntity
  8
0
100
AcDbBlockEnd
  0
BLOCK
  5
80
330
7F
100
AcDbEntity
  8
0
100
AcDbBlockBegin
  2
_Open120
 70
     0
 10
0.0
 20
0.0
 30
0.0
  3
_Open120
  1

  0
LINE
  5
82
330
7F
100
AcDbEntity
  8
0
  6
ByBlock
 62
     0
370
    -2
100
AcDbLine
 10
0.0
 20
0.0
 30
0.0
 11
-1.0
 21
1.72992922008979
 31
0.0
  0
LINE
  5
83
330
7F
100
AcDbEntity
  8
0
  6
ByBlock
 62
     0
370
    -2
100
AcDbLine
 10
0.0
 20
0.0
 30
0.0
 11
-1.0
 21
0.0
 31
0.0
  0
LINE
  5
84
330
7F
100
AcDbEntity
  8
0
  6
ByBlock
 62
     0
370
    -2
100
AcDbLine
 10
0.0
 20
0.0
 30
0.0
 11
-1.0
 21
-1.72992922008979
 31
0.0
  0
ENDBLK
  5
81
330
7F
100
AcDbEntity
  8
0
100
AcDbBlockEnd
  0
BLOCK
  5
86
330
85
100
AcDbEntity
  8
0
100
AcDbBlockBegin
  2
_TriangleBlank
 70
     0
 10
0.0
 20
0.0
 30
0.0
  3
_TriangleBlank
  1

  0
LINE
  5
88
330
85
100
AcDbEntity
  8
0
  6
ByBlock
 62
     0
370
    -2
100
AcDbLine
 10
0.0
 20
0.0
 30
0.0
 11
-1.0
 21
0.3333333333333333
 31
0.0
  0
LINE
  5
89
330
85
100
AcDbEntity
  8
0
  6
ByBlock
 62
     0
370
    -2
100
AcDbLine
 10
-1.0
 20
0.3333333333333333
 30
0.0
 11
-1.0
 21
-0.3333333333333333
 31
0.0
  0
LINE
  5
8A
330
85
100
AcDbEntity
  8
0
  6
ByBlock
 62
     0
370
    -2
100
AcDbLine
 10
-1.0
 20
-0.3333333333333333
 30
0.0
 11
0.0
 21
0.0
 31
0.0
  0
ENDBLK
  5
87
330
85
100
AcDbEntity
  8
0
100
AcDbBlockEnd
  0
BLOCK
  5
8C
330
8B
100
AcDbEntity
  8
0
100
AcDbBlockBegin
  2
_TriangleFilled
 70
     0
 10
0.0
 20
0.0
 30
0.0
  3
_TriangleFilled
  1

  0
SOLID
  5
8E
330
8B
100
AcDbEntity
  8
0
  6
ByBlock
 62
     0
370
    -2
100
AcDbTrace
 10
0.0
 20
0.0
 30
0.0
 11
-1.0
 21
0.3333333333333333
 31
0.0
 12
-1.0
 22
-0.3333333333333333
 32
0.0
 13
-1.0
 23
-0.3333333333333333
 33
0.0
  0
ENDBLK
  5
8D
330
8B
100
AcDbEntity
  8
0
100
AcDbBlockEnd
  0
BLOCK
  5
90
330
8F
100
AcDbEntity
  8
0
100
AcDbBlockBegin
  2
_SlashLeft
 70
     0
 10
0.0
 20
0.0
 30
0.0
  3
_SlashLeft
  1

  0
LINE
  5
92
330
8F
100
AcDbEntity
  8
0
  6
ByBlock
 62
     0
370
    -2
100
AcDbLine
 10
-0.5
 20
0.5
 30
0.0
 11
0.5
 21
-0.5
 31
0.0
  0
LINE
  5
93
330
8F
100
AcDbEntity
  8
0
  6
ByBlock
 62
     0
370
    -2
100
AcDbLine
 10
0.0
 20
0.0
 30
0.0
 11
-1.0
 21
0.0
 31
0.0
  0
ENDBLK
  5
91
330
8F
100
AcDbEntity
  8
0
100
AcDbBlockEnd
  0
BLOCK
  5
95
330
94
100
AcDbEntity
  8
0
100
AcDbBlockBegin
  2
_CustomBlank
 70
     0
 10
0.0
 20
0.0
 30
0.0
  3
_CustomBlank
  1

  0
ENDBLK
  5
96
330
94
100
AcDbEntity
  8
0
100
AcDbBlockEnd
  0
BLOCK
  5
98
330
97
100
AcDbEntity
  8
0
100
AcDbBlockBegin
  2
_Star
 70
     0
 10
0.0
 20
0.0
 30
0.0
  3
_Star
  1

  0
LINE
  5
9A
330
97
100
AcDbEntity
  8
0
  6
ByBlock
 62
     0
370
    -2
100
AcDbLine
 10
-0.5
 20
0.0
 30
0.0
 11
0.5
 21
0.0
 31
0.0
  0
LINE
  5
9B
330
97
100
AcDbEntity
  8
0
  6
ByBlock
 62
     0
370
    -2
100
AcDbLine
 10
-0.25
 20
0.4330127018922193
 30
0.0
 11
0.25
 21
-0.4330127018922193
 31
0.0
  0
LINE
  5
9C
330
97
100
AcDbEntity
  8
0
  6
ByBlock
 62
     0
370
    -2
100
AcDbLine
 10
0.25
 20
0.4330127018922193
 30
0.0
 11
-0.25
 21
-0.4330127018922193
 31
0.0
  0
LINE
  5
9D
330
97
100
AcDbEntity
  8
0
  6
ByBlock
 62
     0
370
    -2
100
AcDbLine
 10
-0.5
 20
0.0
 30
0.0
 11
-1.0
 21
0.0
 31
0.0
  0
ENDBLK
  5
99
330
97
100
AcDbEntity
  8
0
100
AcDbBlockEnd
  0
BLOCK
  5
664
330
663
100
AcDbEntity
  8
0
100
AcDbBlockBegin
  2
*D9
 70
     1
 10
0.0
 20
0.0
 30
0.0
  3
*D9
  1

  0
LINE
  5
666
330
663
100
AcDbEntity
  8
Default
 62
     7
440
 16777216
 48
0.5
370
    15
100
AcDbLine
 10
-502.251953125
 20
5.428544521331787
 30
0.0
 11
-501.9209057614207
 21
5.428544521331787
 31
0.0
  0
LINE
  5
667
330
663
100
AcDbEntity
  8
Default
 62
     7
440
 16777216
 48
0.5
370
    15
100
AcDbLine
 10
-502.251953125
 20
5.140730142593383
 30
0.0
 11
-501.9209057614207
 21
5.140730142593383
 31
0.0
  0
LINE
  5
668
330
663
100
AcDbEntity
  8
Default
 62
     7
440
 16777216
 48
0.5
370
    15
100
AcDbLine
 10
-501.9909057617187
 20
5.532711200416088
 30
0.0
 11
-501.9909057617187
 21
5.636877879500389
 31
0.0
  0
LINE
  5
669
330
663
100
AcDbEntity
  8
Default
 62
     7
440
 16777216
 48
0.5
370
    15
100
AcDbLine
 10
-501.9909057617187
 20
5.036563463509082
 30
0.0
 11
-501.9909057617187
 21
4.932396784424781
 31
0.0
  0
SOLID
  5
66A
330
663
100
AcDbEntity
  8
Default
 62
     7
440
 16777216
100
AcDbTrace
 10
-502.0082668748994
 20
5.532711200416088
 30
0.0
 11
-501.973544648538
 21
5.532711200416088
 31
0.0
 12
-501.9909057617187
 22
5.428544521331787
 32
0.0
 13
-501.9909057617187
 23
5.428544521331787
 33
0.0
  0
SOLID
  5
66B
330
663
100
AcDbEntity
  8
Default
 62
     7
440
 16777216
100
AcDbTrace
 10
-501.973544648538
 20
5.036563463509082
 30
0.0
 11
-502.0082668748994
 21
5.036563463509082
 31
0.0
 12
-501.9909057617187
 22
5.140730142593383
 32
0.0
 13
-501.9909057617187
 23
5.140730142593383
 33
0.0
  0
MTEXT
  5
66C
330
663
100
AcDbEntity
  8
Default
 62
     0
440
 16777216
100
AcDbMText
 10
-501.9909057617187
 20
5.284637331962585
 30
0.0
 40
0.1
 41
0.0
 46
0.0
 71
     5
 72
     1
  1
\A1;\fMontserrat|b0|i0|p0;\H0.666667x;\l6" MIN. (TYP.)\P
  7
Montserrat
 11
0.0000000000000001
 21
1.0
 31
0.0
 73
     1
 44
1.0
  0
POINT
  5
66D
330
663
100
AcDbEntity
  8
Defpoints
 62
     0
440
 16777216
100
AcDbPoint
 10
-502.251953125
 20
5.428544521331787
 30
0.0
  0
POINT
  5
66E
330
663
100
AcDbEntity
  8
Defpoints
 62
     0
440
 16777216
100
AcDbPoint
 10
-502.251953125
 20
5.140730142593383
 30
0.0
  0
POINT
  5
66F
330
663
100
AcDbEntity
  8
Defpoints
 62
     0
440
 16777216
100
AcDbPoint
 10
-501.9909057617187
 20
5.140730142593383
 30
0.0
  0
ENDBLK
  5
665
330
663
100
AcDbEntity
  8
0
100
AcDbBlockEnd
  0
BLOCK
  5
672
330
670
100
AcDbEntity
  8
0
100
AcDbBlockBegin
  2
ANNO_0
 70
     0
 10
0.0
 20
0.0
 30
0.0
  3
ANNO_0
  1

  0
MTEXT
  5
671
330
670
100
AcDbEntity
  8
Default
 62
     7
100
AcDbMText
 10
1.53700304031372
 20
1.726041316986083
 30
0.0
 40
0.1
 41
0.0
 46
0.0
 71
     7
 72
     1
  1
\fMontserrat|b0|i0|p0;\H0.666667x;\C7;\lPREVIOUSLY DAMAGED ROOF DECK AREA. INSPECT\P\fMontserrat|b0|i0|p0;\H1.000000x;\C7;\lROOF SUPPORT MEMBERS BELOW FOR DETERIORATION\P\fMontserrat|b0|i0|p0;\H1.000000x;\C7;\lOR DAMAGE AND REPLACE ENTIRE SHEET.\P
  7
Montserrat
 73
     1
 44
1.0
  0
ENDBLK
  5
673
330
670
100
AcDbEntity
  8
0
100
AcDbBlockEnd
  0
BLOCK
  5
678
330
676
100
AcDbEntity
  8
0
100
AcDbBlockBegin
  2
ANNO_1
 70
     0
 10
0.0
 20
0.0
 30
0.0
  3
ANNO_1
  1

  0
MTEXT
  5
677
330
676
100
AcDbEntity
  8
Default
 62
     7
100
AcDbMText
 10
6.755308151245117
 20
2.064802646636962
 30
0.0
 40
0.1
 41
0.0
 46
0.0
 71
     1
 72
     1
  1
\fMontserrat|b0|i0|p0;\H0.666667x;\C7;\lNEW ROOF DECK REPLACEMENT FASTENED TO SCAB, BLOCKINGS\P\fMontserrat|b0|i0|p0;\H1.000000x;\C7;\l(IF APPLICABLE) AND EXISTING FRAMING IN ACCORDANCE WITH\P
  7
Montserrat
 73
     1
 44
1.0
  0
ENDBLK
  5
679
330
676
100
AcDbEntity
  8
0
100
AcDbBlockEnd
  0
BLOCK
  5
67E
330
67C
100
AcDbEntity
  8
0
100
AcDbBlockBegin
  2
ANNO_2
 70
     0
 10
0.0
 20
0.0
 30
0.0
  3
ANNO_2
  1

  0
MTEXT
  5
67D
330
67C
100
AcDbEntity
  8
Default
 62
     7
100
AcDbMText
 10
5.82135009765625
 20
8.275000274181365
 30
0.0
 40
0.1
 41
0.0
 46
0.0
 71
     1
 72
     1
  1
\fMontserrat|b0|i0|p0;\H0.666667x;\C7;\lEXISTING ROOF FRAMING MEMBERS W/\P\fMontserrat|b0|i0|p0;\H1.000000x;\C7;\l2" MIN. NOMINAL THICKNESS. REFER TO \P\fMontserrat|b0|i0|p0;\H1.000000x;\C7;\lF-RR-2 FOR GUIDANCE ON DETERIORATED \P
  7
Montserrat
 73
     1
 44
1.0
  0
ENDBLK
  5
67F
330
67C
100
AcDbEntity
  8
0
100
AcDbBlockEnd
  0
BLOCK
  5
688
330
686
100
AcDbEntity
  8
0
100
AcDbBlockBegin
  2
ANNO_3
 70
     0
 10
0.0
 20
0.0
 30
0.0
  3
ANNO_3
  1

  0
MTEXT
  5
687
330
686
100
AcDbEntity
  8
Default
 62
     7
100
AcDbMText
 10
0.3508298397064209
 20
4.282851219177246
 30
0.0
 40
0.1
 41
3.173915147781372
 46
0.8299124240875244
 71
     7
 72
     1
  3
\fMontserrat|b0|i0|p0;\H0.666667x;\C7;\lEXISTING ROOF SHEATHING BY OTHERS W/ 7/16" MIN.\P\fMontserrat|b0|i0|p0;\H1.000000x;\C7;\lTHICKNESS AND NO DAMAGE OR DETERIORATION.\P\fMontserrat|b0|i0|p0;\H1.000000x;\C7;\lREFER TO FORTIFIED STANDARD DETAILS F-
  1
RR-3 AND \P\fMontserrat|b0|i0|p0;\H1.000000x;\C7;\lF-RR-4 FOR RE-NAILING SCHEDULE.\P
  7
Montserrat
 73
     1
 44
1.0
  0
ENDBLK
  5
689
330
686
100
AcDbEntity
  8
0
100
AcDbBlockEnd
  0
BLOCK
  5
6BA
330
6B9
100
AcDbEntity
  8
0
100
AcDbBlockBegin
  2
*D14
 70
     1
 10
0.0
 20
0.0
 30
0.0
  3
*D14
  1

  0
LINE
  5
6BC
330
6B9
100
AcDbEntity
  8
Default
 62
     7
440
 16777216
 48
0.5
370
    15
100
AcDbLine
 10
8.145471572875976
 20
7.453125
 30
0.0
 11
8.145471572875976
 21
7.736666925251483
 31
0.0
  0
LINE
  5
6BD
330
6B9
100
AcDbEntity
  8
Default
 62
     7
440
 16777216
 48
0.5
370
    15
100
AcDbLine
 10
9.414030075073242
 20
7.453125
 30
0.0
 11
9.414030075073242
 21
7.736666925251483
 31
0.0
  0
LINE
  5
6BE
330
6B9
100
AcDbEntity
  8
Default
 62
     7
440
 16777216
 48
0.5
370
    15
100
AcDbLine
 10
8.249638251960277
 20
7.66666692495346
 30
0.0
 11
9.309863395988941
 21
7.66666692495346
 31
0.0
  0
SOLID
  5
6BF
330
6B9
100
AcDbEntity
  8
Default
 62
     7
440
 16777216
100
AcDbTrace
 10
8.249638251960277
 20
7.684028038134177
 30
0.0
 11
8.249638251960277
 21
7.649305811772744
 31
0.0
 12
8.145471572875976
 22
7.66666692495346
 32
0.0
 13
8.145471572875976
 23
7.66666692495346
 33
0.0
  0
SOLID
  5
6C0
330
6B9
100
AcDbEntity
  8
Default
 62
     7
440
 16777216
100
AcDbTrace
 10
9.309863395988941
 20
7.649305811772744
 30
0.0
 11
9.309863395988941
 21
7.684028038134177
 31
0.0
 12
9.414030075073242
 22
7.66666692495346
 32
0.0
 13
9.414030075073242
 23
7.66666692495346
 33
0.0
  0
MTEXT
  5
6C1
330
6B9
100
AcDbEntity
  8
Default
 62
     0
440
 16777216
100
AcDbMText
 10
8.779750823974609
 20
7.802283685654129
 30
0.0
 40
0.1
 41
0.0
 46
0.0
 71
     5
 72
     1
  1
\A1;\fMontserrat|b0|i0|p0;\H0.666667x;\l24" O.C. MAX.\P
  7
Montserrat
 73
     1
 44
1.0
  0
POINT
  5
6C2
330
6B9
100
AcDbEntity
  8
Defpoints
 62
     0
440
 16777216
100
AcDbPoint
 10
8.145471572875976
 20
7.453125
 30
0.0
  0
POINT
  5
6C3
330
6B9
100
AcDbEntity
  8
Defpoints
 62
     0
440
 16777216
100
AcDbPoint
 10
9.414030075073242
 20
7.453125
 30
0.0
  0
POINT
  5
6C4
330
6B9
100
AcDbEntity
  8
Defpoints
 62
     0
440
 16777216
100
AcDbPoint
 10
9.414030075073242
 20
7.66666692495346
 30
0.0
  0
ENDBLK
  5
6BB
330
6B9
100
AcDbEntity
  8
0
100
AcDbBlockEnd
  0
BLOCK
  5
6C9
330
6C8
100
AcDbEntity
  8
0
100
AcDbBlockBegin
  2
*D15
 70
     1
 10
0.0
 20
0.0
 30
0.0
  3
*D15
  1

  0
LINE
  5
6CB
330
6C8
100
AcDbEntity
  8
Default
 62
     7
440
 16777216
 48
0.5
370
    15
100
AcDbLine
 10
4.437560081481933
 20
6.470818042755126
 30
0.0
 11
4.736694164574146
 21
6.470818042755126
 31
0.0
  0
LINE
  5
6CC
330
6C8
100
AcDbEntity
  8
Default
 62
     7
440
 16777216
 48
0.5
370
    15
100
AcDbLine
 10
4.437560081481933
 20
6.152798891067504
 30
0.0
 11
4.736694164574146
 21
6.152798891067504
 31
0.0
  0
LINE
  5
6CD
330
6C8
100
AcDbEntity
  8
Default
 62
     7
440
 16777216
 48
0.5
370
    15
100
AcDbLine
 10
4.666694164276123
 20
6.574984721839427
 30
0.0
 11
4.666694164276123
 21
6.679151400923728
 31
0.0
  0
LINE
  5
6CE
330
6C8
100
AcDbEntity
  8
Default
 62
     7
440
 16777216
 48
0.5
370
    15
100
AcDbLine
 10
4.666694164276123
 20
6.048632211983203
 30
0.0
 11
4.666694164276123
 21
5.944465532898902
 31
0.0
  0
SOLID
  5
6CF
330
6C8
100
AcDbEntity
  8
Default
 62
     7
440
 16777216
100
AcDbTrace
 10
4.649333051095406
 20
6.574984721839427
 30
0.0
 11
4.684055277456839
 21
6.574984721839427
 31
0.0
 12
4.666694164276123
 22
6.470818042755126
 32
0.0
 13
4.666694164276123
 23
6.470818042755126
 33
0.0
  0
SOLID
  5
6D0
330
6C8
100
AcDbEntity
  8
Default
 62
     7
440
 16777216
100
AcDbTrace
 10
4.684055277456839
 20
6.048632211983203
 30
0.0
 11
4.649333051095406
 21
6.048632211983203
 31
0.0
 12
4.666694164276123
 22
6.152798891067504
 32
0.0
 13
4.666694164276123
 23
6.152798891067504
 33
0.0
  0
MTEXT
  5
6D1
330
6C8
100
AcDbEntity
  8
Default
 62
     0
440
 16777216
100
AcDbMText
 10
4.666694164276123
 20
6.311808466911315
 30
0.0
 40
0.1
 41
0.0
 46
0.0
 71
     5
 72
     1
  1
\A1;\fMontserrat|b0|i0|p0;\H0.666667x;\l6" MIN. (TYP.)\P
  7
Montserrat
 11
0.0
 21
1.0
 31
0.0
 73
     1
 44
1.0
  0
POINT
  5
6D2
330
6C8
100
AcDbEntity
  8
Defpoints
 62
     0
440
 16777216
100
AcDbPoint
 10
4.437560081481933
 20
6.470818042755126
 30
0.0
  0
POINT
  5
6D3
330
6C8
100
AcDbEntity
  8
Defpoints
 62
     0
440
 16777216
100
AcDbPoint
 10
4.437560081481933
 20
6.152798891067504
 30
0.0
  0
POINT
  5
6D4
330
6C8
100
AcDbEntity
  8
Defpoints
 62
     0
440
 16777216
100
AcDbPoint
 10
4.666694164276123
 20
6.152798891067504
 30
0.0
  0
ENDBLK
  5
6CA
330
6C8
100
AcDbEntity
  8
0
100
AcDbBlockEnd
  0
BLOCK
  5
6D7
330
6D6
100
AcDbEntity
  8
0
100
AcDbBlockBegin
  2
*D16
 70
     1
 10
0.0
 20
0.0
 30
0.0
  3
*D16
  1

  0
LINE
  5
6D9
330
6D6
100
AcDbEntity
  8
Default
 62
     7
440
 16777216
 48
0.5
370
    15
100
AcDbLine
 10
9.251067161560058
 20
3.611199855804443
 30
0.0
 11
9.096693687140941
 21
3.611199855804443
 31
0.0
  0
LINE
  5
6DA
330
6D6
100
AcDbEntity
  8
Default
 62
     7
440
 16777216
 48
0.5
370
    15
100
AcDbLine
 10
9.251067161560058
 20
3.293499946594238
 30
0.0
 11
9.096693687140941
 21
3.293499946594238
 31
0.0
  0
LINE
  5
6DB
330
6D6
100
AcDbEntity
  8
Default
 62
     7
440
 16777216
 48
0.5
370
    15
100
AcDbLine
 10
9.166693687438964
 20
3.715366534888744
 30
0.0
 11
9.166693687438964
 21
3.819533213973045
 31
0.0
  0
LINE
  5
6DC
330
6D6
100
AcDbEntity
  8
Default
 62
     7
440
 16777216
 48
0.5
370
    15
100
AcDbLine
 10
9.166693687438964
 20
3.189333267509937
 30
0.0
 11
9.166693687438964
 21
3.085166588425636
 31
0.0
  0
SOLID
  5
6DD
330
6D6
100
AcDbEntity
  8
Default
 62
     7
440
 16777216
100
AcDbTrace
 10
9.149332574258247
 20
3.715366534888744
 30
0.0
 11
9.184054800619682
 21
3.715366534888744
 31
0.0
 12
9.166693687438964
 22
3.611199855804443
 32
0.0
 13
9.166693687438964
 23
3.611199855804443
 33
0.0
  0
SOLID
  5
6DE
330
6D6
100
AcDbEntity
  8
Default
 62
     7
440
 16777216
100
AcDbTrace
 10
9.184054800619682
 20
3.189333267509937
 30
0.0
 11
9.149332574258247
 21
3.189333267509937
 31
0.0
 12
9.166693687438964
 22
3.293499946594238
 32
0.0
 13
9.166693687438964
 23
3.293499946594238
 33
0.0
  0
MTEXT
  5
6DF
330
6D6
100
AcDbEntity
  8
Default
 62
     0
440
 16777216
100
AcDbMText
 10
9.166693687438964
 20
3.45234990119934
 30
0.0
 40
0.1
 41
0.0
 46
0.0
 71
     5
 72
     1
  1
\A1;\fMontserrat|b0|i0|p0;\H0.666667x;\l6" MIN. (TYP.)\P
  7
Montserrat
 11
0.0
 21
1.0
 31
0.0
 73
     1
 44
1.0
  0
POINT
  5
6E0
330
6D6
100
AcDbEntity
  8
Defpoints
 62
     0
440
 16777216
100
AcDbPoint
 10
9.376067161560058
 20
3.611199855804443
 30
0.0
  0
POINT
  5
6E1
330
6D6
100
AcDbEntity
  8
Defpoints
 62
     0
440
 16777216
100
AcDbPoint
 10
9.376067161560058
 20
3.293499946594238
 30
0.0
  0
POINT
  5
6E2
330
6D6
100
AcDbEntity
  8
Defpoints
 62
     0
440
 16777216
100
AcDbPoint
 10
9.166693687438964
 20
3.293499946594238
 30
0.0
  0
ENDBLK
  5
6D8
330
6D6
100
AcDbEntity
  8
0
100
AcDbBlockEnd
  0
BLOCK
  5
727
330
725
100
AcDbEntity
  8
0
100
AcDbBlockBegin
  2
ANNO_4
 70
     0
 10
0.0
 20
0.0
 30
0.0
  3
ANNO_4
  1

  0
MTEXT
  5
726
330
725
100
AcDbEntity
  8
Default
 62
     7
100
AcDbMText
 10
0.2523312568664551
 20
5.666666269302368
 30
0.0
 40
0.1
 41
3.747669696807861
 46
0.6666669845581055
 71
     7
 72
     1
  1
\fMontserrat|b0|i0|p0;\H0.666667x;\C7;\lAT PANEL ENDS, PROVIDE 2 X 4 SCAB FASTENED TO EXISTING \P\fMontserrat|b0|i0|p0;\H1.000000x;\C7;\lMEMBER W/ 16D NAILS @ 4" O.C. STAGGERED, TYP. OF (2). \P
  7
Montserrat
 73
     1
 44
1.0
  0
ENDBLK
  5
728
330
725
100
AcDbEntity
  8
0
100
AcDbBlockEnd
  0
BLOCK
  5
72D
330
72B
100
AcDbEntity
  8
0
100
AcDbBlockBegin
  2
ANNO_5
 70
     0
 10
0.0
 20
0.0
 30
0.0
  3
ANNO_5
  1

  0
MTEXT
  5
72C
330
72B
100
AcDbEntity
  8
Default
 62
     7
100
AcDbMText
 10
0.3011231422424316
 20
2.873850345611572
 30
0.0
 40
0.1
 41
3.349185943603515
 46
0.5457282066345215
 71
     7
 72
     1
  3
\fMontserrat|b0|i0|p0;\H0.666667x;\C7;\lREFER TO FORTIFIED STANDARD DETAILS F-RR-3 AND \P\fMontserrat|b0|i0|p0;\H1.000000x;\C7;\lF-RR-4 FOR REQUIRED NAILING. ATTACH NEW ROOF\P\fMontserrat|b0|i0|p0;\H1.000000x;\C7;\lDECK TO SCAB (NOT EXISTING ROOF MEM
  1
BER), TYP.\P
  7
Montserrat
 73
     1
 44
1.0
  0
ENDBLK
  5
72E
330
72B
100
AcDbEntity
  8
0
100
AcDbBlockEnd
  0
BLOCK
  5
89C
330
89B
100
AcDbEntity
  8
0
100
AcDbBlockBegin
  2
*D22
 70
     1
 10
0.0
 20
0.0
 30
0.0
  3
*D22
  1

  0
LINE
  5
8C1
330
89B
100
AcDbEntity
  8
Default
 62
     7
440
 16777216
 48
0.5
370
    15
100
AcDbLine
 10
-8.133937780288661
 20
10.02456332814517
 30
0.0
 11
-8.133937780288661
 21
10.30810525339666
 31
0.0
  0
LINE
  5
8C2
330
89B
100
AcDbEntity
  8
Default
 62
     7
440
 16777216
 48
0.5
370
    15
100
AcDbLine
 10
-6.865379278091396
 20
10.02456332814517
 30
0.0
 11
-6.865379278091396
 21
10.30810525339666
 31
0.0
  0
LINE
  5
8C3
330
89B
100
AcDbEntity
  8
Default
 62
     7
440
 16777216
 48
0.5
370
    15
100
AcDbLine
 10
-8.02977110120436
 20
10.23810525309864
 30
0.0
 11
-6.969545957175697
 21
10.23810525309864
 31
0.0
  0
SOLID
  5
8C4
330
89B
100
AcDbEntity
  8
Default
 62
     7
440
 16777216
 48
0.5
100
AcDbTrace
 10
-8.02977110120436
 20
10.25546636627935
 30
0.0
 11
-8.02977110120436
 21
10.22074413991792
 31
0.0
 12
-8.133937780288661
 22
10.23810525309864
 32
0.0
 13
-8.133937780288661
 23
10.23810525309864
 33
0.0
  0
SOLID
  5
8C5
330
89B
100
AcDbEntity
  8
Default
 62
     7
440
 16777216
 48
0.5
100
AcDbTrace
 10
-6.969545957175697
 20
10.25546636627935
 30
0.0
 11
-6.969545957175697
 21
10.22074413991792
 31
0.0
 12
-6.865379278091396
 22
10.23810525309864
 32
0.0
 13
-6.865379278091396
 23
10.23810525309864
 33
0.0
  0
MTEXT
  5
8C6
330
89B
100
AcDbEntity
  8
Default
 62
     0
440
 16777216
 48
0.5
100
AcDbMText
 10
-7.499658529190028
 20
10.34778781292047
 30
0.0
 40
0.1
 41
0.0
 46
0.0
 71
     5
 72
     1
  1
\A1;\fMontserrat|b0|i0|p0;\H0.666667x;\l24" O.C. MAX.\P
  7
Montserrat
 73
     1
 44
1.0
  0
POINT
  5
8C7
330
89B
100
AcDbEntity
  8
Defpoints
 62
     0
440
 16777216
 48
0.5
100
AcDbPoint
 10
-8.133937780288661
 20
10.02456332814517
 30
0.0
  0
POINT
  5
8C8
330
89B
100
AcDbEntity
  8
Defpoints
 62
     0
440
 16777216
 48
0.5
100
AcDbPoint
 10
-6.865379278091396
 20
10.02456332814517
 30
0.0
  0
POINT
  5
8C9
330
89B
100
AcDbEntity
  8
Defpoints
 62
     0
440
 16777216
 48
0.5
100
AcDbPoint
 10
-6.865379278091396
 20
10.23810525309864
 30
0.0
  0
ENDBLK
  5
89D
330
89B
100
AcDbEntity
  8
0
100
AcDbBlockEnd
  0
BLOCK
  5
8A8
330
8A7
100
AcDbEntity
  8
0
100
AcDbBlockBegin
  2
*D23
 70
     1
 10
0.0
 20
0.0
 30
0.0
  3
*D23
  1

  0
LINE
  5
8CA
330
8A7
100
AcDbEntity
  8
Default
 62
     7
440
 16777216
 48
0.5
370
    15
100
AcDbLine
 10
-11.84184927168271
 20
9.042256370900307
 30
0.0
 11
-11.54271518859049
 21
9.042256370900307
 31
0.0
  0
LINE
  5
8CB
330
8A7
100
AcDbEntity
  8
Default
 62
     7
440
 16777216
 48
0.5
370
    15
100
AcDbLine
 10
-11.84184927168271
 20
8.724237219212685
 30
0.0
 11
-11.54271518859049
 21
8.724237219212685
 31
0.0
  0
LINE
  5
8CC
330
8A7
100
AcDbEntity
  8
Default
 62
     7
440
 16777216
 48
0.5
370
    15
100
AcDbLine
 10
-11.61271518888852
 20
9.146423049984608
 30
0.0
 11
-11.61271518888852
 21
9.250589729068909
 31
0.0
  0
LINE
  5
8CD
330
8A7
100
AcDbEntity
  8
Default
 62
     7
440
 16777216
 48
0.5
370
    15
100
AcDbLine
 10
-11.61271518888852
 20
8.620070540128384
 30
0.0
 11
-11.61271518888852
 21
8.515903861044083
 31
0.0
  0
SOLID
  5
8CE
330
8A7
100
AcDbEntity
  8
Default
 62
     7
440
 16777216
 48
0.5
100
AcDbTrace
 10
-11.63007630206923
 20
9.146423049984608
 30
0.0
 11
-11.5953540757078
 21
9.146423049984608
 31
0.0
 12
-11.61271518888852
 22
9.042256370900307
 32
0.0
 13
-11.61271518888852
 23
9.042256370900307
 33
0.0
  0
SOLID
  5
8CF
330
8A7
100
AcDbEntity
  8
Default
 62
     7
440
 16777216
 48
0.5
100
AcDbTrace
 10
-11.63007630206923
 20
8.620070540128384
 30
0.0
 11
-11.5953540757078
 21
8.620070540128384
 31
0.0
 12
-11.61271518888852
 22
8.724237219212685
 32
0.0
 13
-11.61271518888852
 23
8.724237219212685
 33
0.0
  0
MTEXT
  5
8D0
330
8A7
100
AcDbEntity
  8
Default
 62
     0
440
 16777216
 48
0.5
100
AcDbMText
 10
-11.61271518888851
 20
8.883246795056496
 30
0.0
 40
0.1
 41
0.0
 46
0.0
 71
     5
 72
     1
  1
\A1;\fMontserrat|b0|i0|p0;\H0.666667x;\l6" MIN. (TYP.)\P
  7
Montserrat
 11
0.0000000000000001
 21
1.0
 31
0.0
 73
     1
 44
1.0
  0
POINT
  5
8D1
330
8A7
100
AcDbEntity
  8
Defpoints
 62
     0
440
 16777216
 48
0.5
100
AcDbPoint
 10
-11.84184927168271
 20
9.042256370900307
 30
0.0
  0
POINT
  5
8D2
330
8A7
100
AcDbEntity
  8
Defpoints
 62
     0
440
 16777216
 48
0.5
100
AcDbPoint
 10
-11.84184927168271
 20
8.724237219212685
 30
0.0
  0
POINT
  5
8D3
330
8A7
100
AcDbEntity
  8
Defpoints
 62
     0
440
 16777216
 48
0.5
100
AcDbPoint
 10
-11.61271518888852
 20
8.724237219212685
 30
0.0
  0
ENDBLK
  5
8A9
330
8A7
100
AcDbEntity
  8
0
100
AcDbBlockEnd
  0
BLOCK
  5
8B5
330
8B4
100
AcDbEntity
  8
0
100
AcDbBlockBegin
  2
*D24
 70
     1
 10
0.0
 20
0.0
 30
0.0
  3
*D24
  1

  0
LINE
  5
8D4
330
8B4
100
AcDbEntity
  8
Default
 62
     7
440
 16777216
 48
0.5
370
    15
100
AcDbLine
 10
-7.028342191604583
 20
6.182638183949624
 30
0.0
 11
-7.182715666023697
 21
6.182638183949624
 31
0.0
  0
LINE
  5
8D5
330
8B4
100
AcDbEntity
  8
Default
 62
     7
440
 16777216
 48
0.5
370
    15
100
AcDbLine
 10
-7.028342191604583
 20
5.864938274739417
 30
0.0
 11
-7.182715666023696
 21
5.864938274739417
 31
0.0
  0
LINE
  5
8D6
330
8B4
100
AcDbEntity
  8
Default
 62
     7
440
 16777216
 48
0.5
370
    15
100
AcDbLine
 10
-7.112715665725674
 20
6.286804863033925
 30
0.0
 11
-7.112715665725674
 21
6.390971542118226
 31
0.0
  0
LINE
  5
8D7
330
8B4
100
AcDbEntity
  8
Default
 62
     7
440
 16777216
 48
0.5
370
    15
100
AcDbLine
 10
-7.112715665725673
 20
5.760771595655116
 30
0.0
 11
-7.112715665725673
 21
5.656604916570815
 31
0.0
  0
SOLID
  5
8D8
330
8B4
100
AcDbEntity
  8
Default
 62
     7
440
 16777216
 48
0.5
100
AcDbTrace
 10
-7.13007677890639
 20
6.286804863033925
 30
0.0
 11
-7.095354552544957
 21
6.286804863033925
 31
0.0
 12
-7.112715665725674
 22
6.182638183949624
 32
0.0
 13
-7.112715665725674
 23
6.182638183949624
 33
0.0
  0
SOLID
  5
8D9
330
8B4
100
AcDbEntity
  8
Default
 62
     7
440
 16777216
 48
0.5
100
AcDbTrace
 10
-7.130076778906389
 20
5.760771595655116
 30
0.0
 11
-7.095354552544956
 21
5.760771595655116
 31
0.0
 12
-7.112715665725673
 22
5.864938274739417
 32
0.0
 13
-7.112715665725673
 23
5.864938274739417
 33
0.0
  0
MTEXT
  5
8DA
330
8B4
100
AcDbEntity
  8
Default
 62
     0
440
 16777216
 48
0.5
100
AcDbMText
 10
-7.11271566572567
 20
6.023788229344521
 30
0.0
 40
0.1
 41
0.0
 46
0.0
 71
     5
 72
     1
  1
\A1;\fMontserrat|b0|i0|p0;\H0.666667x;\l6" MIN. (TYP.)\P
  7
Montserrat
 11
0.0000000000000001
 21
1.0
 31
0.0
 73
     1
 44
1.0
  0
POINT
  5
8DB
330
8B4
100
AcDbEntity
  8
Defpoints
 62
     0
440
 16777216
 48
0.5
100
AcDbPoint
 10
-6.903342191604583
 20
6.182638183949624
 30
0.0
  0
POINT
  5
8DC
330
8B4
100
AcDbEntity
  8
Defpoints
 62
     0
440
 16777216
 48
0.5
100
AcDbPoint
 10
-6.903342191604583
 20
5.864938274739417
 30
0.0
  0
POINT
  5
8DD
330
8B4
100
AcDbEntity
  8
Defpoints
 62
     0
440
 16777216
 48
0.5
100
AcDbPoint
 10
-7.112715665725673
 20
5.864938274739417
 30
0.0
  0
ENDBLK
  5
8B6
330
8B4
100
AcDbEntity
  8
0
100
AcDbBlockEnd
  0
ENDSEC
  0
SECTION
  2
ENTITIES
  0
LINE
  5
DE
330
1F
100
AcDbEntity
  8
0
 60
     1
100
AcDbLine
 10
105.548790410778
 20
23.49980558613943
 30
0.0
 11
0.0000225135672594
 21
71.49982513018589
 31
0.0
  0
LINE
  5
E0
330
1F
100
AcDbEntity
  8
0
 60
     1
100
AcDbLine
 10
9.548787344392735
 20
23.49982359699324
 30
0.0
 11
0.0000225135672594
 21
23.49982359699324
 31
0.0
  0
LINE
  5
E2
330
1F
100
AcDbEntity
  8
0
 60
     1
100
AcDbLine
 10
57.54878437487191
 20
-0.0000090054269037
 30
0.0
 11
57.54878437487191
 21
23.49980558613943
 31
0.0
  0
LINE
  5
E6
330
1F
100
AcDbEntity
  8
0
 60
     1
100
AcDbLine
 10
116.4621250664115
 20
23.49980558613943
 30
0.0
 11
116.4621250664115
 21
71.49980711933207
 31
0.0
  0
LINE
  5
E8
330
1F
100
AcDbEntity
  8
0
 60
     1
100
AcDbLine
 10
57.54878437487191
 20
71.49982513018589
 30
0.0
 11
57.54878437487191
 21
96.05745769001647
 31
0.0
  0
LINE
  5
EF
330
1F
100
AcDbEntity
  8
0
 60
     1
100
AcDbLine
 10
11.36457858681088
 20
23.82301936305903
 30
0.0
 11
11.27307444406534
 21
24.16453216744236
 31
0.0
  0
LINE
  5
F5
330
1F
100
AcDbEntity
  8
0
 60
     1
100
AcDbLine
 10
10.90659859631123
 20
23.88330169073729
 30
0.0
 11
11.02306578242755
 21
24.16453216744236
 31
0.0
  0
LINE
  5
FA
330
1F
100
AcDbEntity
  8
0
 60
     1
100
AcDbLine
 10
11.27307444406534
 20
24.16453216744236
 30
0.0
 11
11.02306578242755
 21
24.16453216744236
 31
0.0
  0
LINE
  5
FE
330
1F
100
AcDbEntity
  8
0
 60
     1
100
AcDbLine
 10
11.14807011324645
 20
23.69801503224014
 30
0.0
 11
10.97130258859808
 21
23.77122915294885
 31
0.0
  0
LINE
  5
102
330
1F
100
AcDbEntity
  8
0
 60
     1
100
AcDbLine
 10
11.2127921163871
 20
23.7065341660889
 30
0.0
 11
11.36457858681088
 21
23.82301936305903
 31
0.0
  0
LINE
  5
105
330
1F
100
AcDbEntity
  8
0
 60
     1
100
AcDbLine
 10
10.90659859631123
 20
23.88330169073729
 30
0.0
 11
10.97130258859808
 21
23.77122915294885
 31
0.0
  0
LINE
  5
107
330
1F
100
AcDbEntity
  8
0
 60
     1
100
AcDbLine
 10
11.14807011324645
 20
23.69801503224014
 30
0.0
 11
11.2127921163871
 21
23.7065341660889
 31
0.0
  0
LINE
  5
10E
330
1F
100
AcDbEntity
  8
0
 60
     1
100
AcDbLine
 10
11.36457858681088
 20
29.6730077162231
 30
0.0
 11
11.27307444406534
 21
30.01452052060642
 31
0.0
  0
LINE
  5
114
330
1F
100
AcDbEntity
  8
0
 60
     1
100
AcDbLine
 10
10.90659859631123
 20
29.73331706018205
 30
0.0
 11
11.02306578242755
 21
30.01452052060642
 31
0.0
  0
LINE
  5
119
330
1F
100
AcDbEntity
  8
0
 60
     1
100
AcDbLine
 10
11.27307444406534
 20
30.01452052060642
 30
0.0
 11
11.02306578242755
 21
30.01452052060642
 31
0.0
  0
LINE
  5
11D
330
1F
100
AcDbEntity
  8
0
 60
     1
100
AcDbLine
 10
11.14807011324645
 20
29.5480033854042
 30
0.0
 11
10.97130258859808
 21
29.62122651153982
 31
0.0
  0
LINE
  5
121
330
1F
100
AcDbEntity
  8
0
 60
     1
100
AcDbLine
 10
11.2127921163871
 20
29.55652251925297
 30
0.0
 11
11.36457858681088
 21
29.6730077162231
 31
0.0
  0
LINE
  5
124
330
1F
100
AcDbEntity
  8
0
 60
     1
100
AcDbLine
 10
10.90659859631123
 20
29.73331706018205
 30
0.0
 11
10.97130258859808
 21
29.62122651153982
 31
0.0
  0
LINE
  5
126
330
1F
100
AcDbEntity
  8
0
 60
     1
100
AcDbLine
 10
11.14807011324645
 20
29.5480033854042
 30
0.0
 11
11.2127921163871
 21
29.55652251925297
 31
0.0
  0
LINE
  5
12F
330
1F
100
AcDbEntity
  8
0
 60
     1
100
AcDbLine
 10
11.2127921163871
 20
35.88948092256818
 30
0.0
 11
10.90659859631123
 21
35.58330541334611
 31
0.0
  0
LINE
  5
133
330
1F
100
AcDbEntity
  8
0
 60
     1
100
AcDbLine
 10
11.14807011324645
 20
35.39801875484898
 30
0.0
 11
10.97130258859808
 21
35.4712418809846
 31
0.0
  0
LINE
  5
139
330
1F
100
AcDbEntity
  8
0
 60
     1
100
AcDbLine
 10
11.2127921163871
 20
35.40653788869774
 30
0.0
 11
11.39807877488424
 21
35.64800940563296
 31
0.0
  0
LINE
  5
13E
330
1F
100
AcDbEntity
  8
0
 60
     1
100
AcDbLine
 10
11.38955964103547
 20
35.71271339791981
 30
0.0
 11
11.2127921163871
 21
35.88948092256818
 31
0.0
  0
LINE
  5
141
330
1F
100
AcDbEntity
  8
0
 60
     1
100
AcDbLine
 10
10.90659859631123
 20
35.58330541334611
 30
0.0
 11
10.97130258859808
 21
35.4712418809846
 31
0.0
  0
LINE
  5
143
330
1F
100
AcDbEntity
  8
0
 60
     1
100
AcDbLine
 10
11.14807011324645
 20
35.39801875484898
 30
0.0
 11
11.2127921163871
 21
35.40653788869774
 31
0.0
  0
LINE
  5
145
330
1F
100
AcDbEntity
  8
0
 60
     1
100
AcDbLine
 10
11.39807877488424
 20
35.64800940563296
 30
0.0
 11
11.38955964103547
 21
35.71271339791981
 31
0.0
  0
LINE
  5
14E
330
1F
100
AcDbEntity
  8
0
 60
     1
100
AcDbLine
 10
11.2127921163871
 20
41.73949178929951
 30
0.0
 11
10.90659859631123
 21
41.43329826922363
 31
0.0
  0
LINE
  5
152
330
1F
100
AcDbEntity
  8
0
 60
     1
100
AcDbLine
 10
11.14807011324645
 20
41.24801161072649
 30
0.0
 11
10.97130258859808
 21
41.32123023414865
 31
0.0
  0
LINE
  5
158
330
1F
100
AcDbEntity
  8
0
 60
     1
100
AcDbLine
 10
11.2127921163871
 20
41.25653074457526
 30
0.0
 11
11.39807877488424
 21
41.49802027236428
 31
0.0
  0
LINE
  5
15D
330
1F
100
AcDbEntity
  8
0
 60
     1
100
AcDbLine
 10
11.38955964103547
 20
41.56272426465114
 30
0.0
 11
11.2127921163871
 21
41.73949178929951
 31
0.0
  0
LINE
  5
160
330
1F
100
AcDbEntity
  8
0
 60
     1
100
AcDbLine
 10
10.90659859631123
 20
41.43329826922363
 30
0.0
 11
10.97130258859808
 21
41.32123023414865
 31
0.0
  0
LINE
  5
162
330
1F
100
AcDbEntity
  8
0
 60
     1
100
AcDbLine
 10
11.14807011324645
 20
41.24801161072649
 30
0.0
 11
11.2127921163871
 21
41.25653074457526
 31
0.0
  0
LINE
  5
164
330
1F
100
AcDbEntity
  8
0
 60
     1
100
AcDbLine
 10
11.39807877488424
 20
41.49802027236428
 30
0.0
 11
11.38955964103547
 21
41.56272426465114
 31
0.0
  0
LINE
  5
16D
330
1F
100
AcDbEntity
  8
0
 60
     1
100
AcDbLine
 10
11.2127921163871
 20
47.58948464517702
 30
0.0
 11
10.90659859631123
 21
47.28330913595494
 31
0.0
  0
LINE
  5
171
330
1F
100
AcDbEntity
  8
0
 60
     1
100
AcDbLine
 10
11.14807011324645
 20
47.09800446660401
 30
0.0
 11
10.97130258859808
 21
47.17124110087996
 31
0.0
  0
LINE
  5
177
330
1F
100
AcDbEntity
  8
0
 60
     1
100
AcDbLine
 10
11.2127921163871
 20
47.10652360045277
 30
0.0
 11
11.39807877488424
 21
47.3480131282418
 31
0.0
  0
LINE
  5
17C
330
1F
100
AcDbEntity
  8
0
 60
     1
100
AcDbLine
 10
11.38955964103547
 20
47.41271712052864
 30
0.0
 11
11.2127921163871
 21
47.58948464517702
 31
0.0
  0
LINE
  5
17F
330
1F
100
AcDbEntity
  8
0
 60
     1
100
AcDbLine
 10
10.90659859631123
 20
47.28330913595494
 30
0.0
 11
10.97130258859808
 21
47.17124110087996
 31
0.0
  0
LINE
  5
181
330
1F
100
AcDbEntity
  8
0
 60
     1
100
AcDbLine
 10
11.14807011324645
 20
47.09800446660401
 30
0.0
 11
11.2127921163871
 21
47.10652360045277
 31
0.0
  0
LINE
  5
183
330
1F
100
AcDbEntity
  8
0
 60
     1
100
AcDbLine
 10
11.39807877488424
 20
47.3480131282418
 30
0.0
 11
11.38955964103547
 21
47.41271712052864
 31
0.0
  0
LINE
  5
18C
330
1F
100
AcDbEntity
  8
0
 60
     1
100
AcDbLine
 10
11.2127921163871
 20
53.43950001462179
 30
0.0
 11
10.90659859631123
 21
53.13330199183246
 31
0.0
  0
LINE
  5
190
330
1F
100
AcDbEntity
  8
0
 60
     1
100
AcDbLine
 10
11.14807011324645
 20
52.94801533333533
 30
0.0
 11
10.97130258859808
 21
53.02123395675748
 31
0.0
  0
LINE
  5
196
330
1F
100
AcDbEntity
  8
0
 60
     1
100
AcDbLine
 10
11.2127921163871
 20
52.95653446718408
 30
0.0
 11
11.39807877488424
 21
53.19800598411931
 31
0.0
  0
LINE
  5
19B
330
1F
100
AcDbEntity
  8
0
 60
     1
100
AcDbLine
 10
11.38955964103547
 20
53.26270997640616
 30
0.0
 11
11.2127921163871
 21
53.43950001462179
 31
0.0
  0
LINE
  5
19E
330
1F
100
AcDbEntity
  8
0
 60
     1
100
AcDbLine
 10
10.90659859631123
 20
53.13330199183246
 30
0.0
 11
10.97130258859808
 21
53.02123395675748
 31
0.0
  0
LINE
  5
1A0
330
1F
100
AcDbEntity
  8
0
 60
     1
100
AcDbLine
 10
11.14807011324645
 20
52.94801533333533
 30
0.0
 11
11.2127921163871
 21
52.95653446718408
 31
0.0
  0
LINE
  5
1A2
330
1F
100
AcDbEntity
  8
0
 60
     1
100
AcDbLine
 10
11.39807877488424
 20
53.19800598411931
 30
0.0
 11
11.38955964103547
 21
53.26270997640616
 31
0.0
  0
LINE
  5
1AB
330
1F
100
AcDbEntity
  8
0
 60
     1
100
AcDbLine
 10
11.2127921163871
 20
59.28949287049931
 30
0.0
 11
10.90659859631123
 21
58.98329484770997
 31
0.0
  0
LINE
  5
1AF
330
1F
100
AcDbEntity
  8
0
 60
     1
100
AcDbLine
 10
11.14807011324645
 20
58.79800818921284
 30
0.0
 11
10.97130258859808
 21
58.871226812635
 31
0.0
  0
LINE
  5
1B5
330
1F
100
AcDbEntity
  8
0
 60
     1
100
AcDbLine
 10
11.2127921163871
 20
58.8065273230616
 30
0.0
 11
11.39807877488424
 21
59.04801685085063
 31
0.0
  0
LINE
  5
1BA
330
1F
100
AcDbEntity
  8
0
 60
     1
100
AcDbLine
 10
11.38955964103547
 20
59.11272084313748
 30
0.0
 11
11.2127921163871
 21
59.28949287049931
 31
0.0
  0
LINE
  5
1BD
330
1F
100
AcDbEntity
  8
0
 60
     1
100
AcDbLine
 10
10.90659859631123
 20
58.98329484770997
 30
0.0
 11
10.97130258859808
 21
58.871226812635
 31
0.0
  0
LINE
  5
1BF
330
1F
100
AcDbEntity
  8
0
 60
     1
100
AcDbLine
 10
11.14807011324645
 20
58.79800818921284
 30
0.0
 11
11.2127921163871
 21
58.8065273230616
 31
0.0
  0
LINE
  5
1C1
330
1F
100
AcDbEntity
  8
0
 60
     1
100
AcDbLine
 10
11.39807877488424
 20
59.04801685085063
 30
0.0
 11
11.38955964103547
 21
59.11272084313748
 31
0.0
  0
LINE
  5
1CA
330
1F
100
AcDbEntity
  8
0
 60
     1
100
AcDbLine
 10
11.2127921163871
 20
65.13950373723062
 30
0.0
 11
10.90659859631123
 21
64.83331021715475
 31
0.0
  0
LINE
  5
1CE
330
1F
100
AcDbEntity
  8
0
 60
     1
100
AcDbLine
 10
11.14807011324645
 20
64.64801905594416
 30
0.0
 11
10.97130258859808
 21
64.72124218207977
 31
0.0
  0
LINE
  5
1D4
330
1F
100
AcDbEntity
  8
0
 60
     1
100
AcDbLine
 10
11.2127921163871
 20
64.65653818979291
 30
0.0
 11
11.39807877488424
 21
64.89800970672814
 31
0.0
  0
LINE
  5
1D9
330
1F
100
AcDbEntity
  8
0
 60
     1
100
AcDbLine
 10
11.38955964103547
 20
64.96271369901499
 30
0.0
 11
11.2127921163871
 21
65.13950373723062
 31
0.0
  0
LINE
  5
1DC
330
1F
100
AcDbEntity
  8
0
 60
     1
100
AcDbLine
 10
10.90659859631123
 20
64.83331021715475
 30
0.0
 11
10.97130258859808
 21
64.72124218207977
 31
0.0
  0
LINE
  5
1DE
330
1F
100
AcDbEntity
  8
0
 60
     1
100
AcDbLine
 10
11.14807011324645
 20
64.64801905594416
 30
0.0
 11
11.2127921163871
 21
64.65653818979291
 31
0.0
  0
LINE
  5
1E0
330
1F
100
AcDbEntity
  8
0
 60
     1
100
AcDbLine
 10
11.39807877488424
 20
64.89800970672814
 30
0.0
 11
11.38955964103547
 21
64.96271369901499
 31
0.0
  0
LINE
  5
1E9
330
1F
100
AcDbEntity
  8
0
 60
     1
100
AcDbLine
 10
11.2127921163871
 20
70.98949659310815
 30
0.0
 11
10.90659859631123
 21
70.68330307303226
 31
0.0
  0
LINE
  5
1ED
330
1F
100
AcDbEntity
  8
0
 60
     1
100
AcDbLine
 10
11.14807011324645
 20
70.49801191182166
 30
0.0
 11
10.97130258859808
 21
70.57123503795728
 31
0.0
  0
LINE
  5
1F3
330
1F
100
AcDbEntity
  8
0
 60
     1
100
AcDbLine
 10
11.2127921163871
 20
70.50653104567044
 30
0.0
 11
11.39807877488424
 21
70.74800256260566
 31
0.0
  0
LINE
  5
1F8
330
1F
100
AcDbEntity
  8
0
 60
     1
100
AcDbLine
 10
11.38955964103547
 20
70.81270655489252
 30
0.0
 11
11.2127921163871
 21
70.98949659310815
 31
0.0
  0
LINE
  5
1FB
330
1F
100
AcDbEntity
  8
0
 60
     1
100
AcDbLine
 10
10.90659859631123
 20
70.68330307303226
 30
0.0
 11
10.97130258859808
 21
70.57123503795728
 31
0.0
  0
LINE
  5
1FD
330
1F
100
AcDbEntity
  8
0
 60
     1
100
AcDbLine
 10
11.14807011324645
 20
70.49801191182166
 30
0.0
 11
11.2127921163871
 21
70.50653104567044
 31
0.0
  0
LINE
  5
1FF
330
1F
100
AcDbEntity
  8
0
 60
     1
100
AcDbLine
 10
11.39807877488424
 20
70.74800256260566
 30
0.0
 11
11.38955964103547
 21
70.81270655489252
 31
0.0
  0
LINE
  5
206
330
1F
100
AcDbEntity
  8
0
 60
     1
100
AcDbLine
 10
104.3645767732385
 20
29.6729897053693
 30
0.0
 11
104.2730816359199
 21
30.01452052060642
 31
0.0
  0
LINE
  5
20C
330
1F
100
AcDbEntity
  8
0
 60
     1
100
AcDbLine
 10
103.9065967827389
 20
29.73329004390135
 30
0.0
 11
104.0230909851359
 21
30.01452052060642
 31
0.0
  0
LINE
  5
211
330
1F
100
AcDbEntity
  8
0
 60
     1
100
AcDbLine
 10
104.2730816359199
 20
30.01452052060642
 30
0.0
 11
104.0230909851359
 21
30.01452052060642
 31
0.0
  0
LINE
  5
215
330
1F
100
AcDbEntity
  8
0
 60
     1
100
AcDbLine
 10
104.1480863105279
 20
29.5480033854042
 30
0.0
 11
103.9712917695988
 21
29.62122651153982
 31
0.0
  0
LINE
  5
219
330
1F
100
AcDbEntity
  8
0
 60
     1
100
AcDbLine
 10
104.2127812973879
 20
29.55652251925297
 30
0.0
 11
104.3645767732385
 21
29.6729897053693
 31
0.0
  0
LINE
  5
21C
330
1F
100
AcDbEntity
  8
0
 60
     1
100
AcDbLine
 10
103.9065967827389
 20
29.73329004390135
 30
0.0
 11
103.9712917695988
 21
29.62122651153982
 31
0.0
  0
LINE
  5
21E
330
1F
100
AcDbEntity
  8
0
 60
     1
100
AcDbLine
 10
104.1480863105279
 20
29.5480033854042
 30
0.0
 11
104.2127812973879
 21
29.55652251925297
 31
0.0
  0
LINE
  5
227
330
1F
100
AcDbEntity
  8
0
 60
     1
100
AcDbLine
 10
104.2127812973879
 20
47.58948464517702
 30
0.0
 11
103.9065967827389
 21
47.28329112510114
 31
0.0
  0
LINE
  5
22B
330
1F
100
AcDbEntity
  8
0
 60
     1
100
AcDbLine
 10
104.1480863105279
 20
47.09800446660401
 30
0.0
 11
103.9712917695988
 21
47.17122309002617
 31
0.0
  0
LINE
  5
231
330
1F
100
AcDbEntity
  8
0
 60
     1
100
AcDbLine
 10
104.2127812973879
 20
47.10652360045277
 30
0.0
 11
104.3980769613119
 21
47.34799511738799
 31
0.0
  0
LINE
  5
236
330
1F
100
AcDbEntity
  8
0
 60
     1
100
AcDbLine
 10
104.3895578274631
 20
47.41271712052864
 30
0.0
 11
104.2127812973879
 21
47.58948464517702
 31
0.0
  0
LINE
  5
239
330
1F
100
AcDbEntity
  8
0
 60
     1
100
AcDbLine
 10
103.9065967827389
 20
47.28329112510114
 30
0.0
 11
103.9712917695988
 21
47.17122309002617
 31
0.0
  0
LINE
  5
23B
330
1F
100
AcDbEntity
  8
0
 60
     1
100
AcDbLine
 10
104.1480863105279
 20
47.09800446660401
 30
0.0
 11
104.2127812973879
 21
47.10652360045277
 31
0.0
  0
LINE
  5
23D
330
1F
100
AcDbEntity
  8
0
 60
     1
100
AcDbLine
 10
104.3980769613119
 20
47.34799511738799
 30
0.0
 11
104.3895578274631
 21
47.41271712052864
 31
0.0
  0
LINE
  5
246
330
1F
100
AcDbEntity
  8
0
 60
     1
100
AcDbLine
 10
104.2127812973879
 20
35.88948092256818
 30
0.0
 11
103.9065967827389
 21
35.58328740249232
 31
0.0
  0
LINE
  5
24A
330
1F
100
AcDbEntity
  8
0
 60
     1
100
AcDbLine
 10
104.1480863105279
 20
35.39800074399517
 30
0.0
 11
103.9712917695988
 21
35.47121486470388
 31
0.0
  0
LINE
  5
250
330
1F
100
AcDbEntity
  8
0
 60
     1
100
AcDbLine
 10
104.2127812973879
 20
35.40651987784393
 30
0.0
 11
104.3980769613119
 21
35.64800940563296
 31
0.0
  0
LINE
  5
255
330
1F
100
AcDbEntity
  8
0
 60
     1
100
AcDbLine
 10
104.3895578274631
 20
35.71271339791981
 30
0.0
 11
104.2127812973879
 21
35.88948092256818
 31
0.0
  0
LINE
  5
258
330
1F
100
AcDbEntity
  8
0
 60
     1
100
AcDbLine
 10
103.9065967827389
 20
35.58328740249232
 30
0.0
 11
103.9712917695988
 21
35.47121486470388
 31
0.0
  0
LINE
  5
25A
330
1F
100
AcDbEntity
  8
0
 60
     1
100
AcDbLine
 10
104.1480863105279
 20
35.39800074399517
 30
0.0
 11
104.2127812973879
 21
35.40651987784393
 31
0.0
  0
LINE
  5
25C
330
1F
100
AcDbEntity
  8
0
 60
     1
100
AcDbLine
 10
104.3980769613119
 20
35.64800940563296
 30
0.0
 11
104.3895578274631
 21
35.71271339791981
 31
0.0
  0
LINE
  5
265
330
1F
100
AcDbEntity
  8
0
 60
     1
100
AcDbLine
 10
104.2127812973879
 20
59.28949287049931
 30
0.0
 11
103.9065967827389
 21
58.98329484770997
 31
0.0
  0
LINE
  5
269
330
1F
100
AcDbEntity
  8
0
 60
     1
100
AcDbLine
 10
104.1480863105279
 20
58.79800818921284
 30
0.0
 11
103.9712917695988
 21
58.871226812635
 31
0.0
  0
LINE
  5
26F
330
1F
100
AcDbEntity
  8
0
 60
     1
100
AcDbLine
 10
104.2127812973879
 20
58.8065273230616
 30
0.0
 11
104.3980769613119
 21
59.04799883999682
 31
0.0
  0
LINE
  5
274
330
1F
100
AcDbEntity
  8
0
 60
     1
100
AcDbLine
 10
104.3895578274631
 20
59.11272084313748
 30
0.0
 11
104.2127812973879
 21
59.28949287049931
 31
0.0
  0
LINE
  5
277
330
1F
100
AcDbEntity
  8
0
 60
     1
100
AcDbLine
 10
103.9065967827389
 20
58.98329484770997
 30
0.0
 11
103.9712917695988
 21
58.871226812635
 31
0.0
  0
LINE
  5
279
330
1F
100
AcDbEntity
  8
0
 60
     1
100
AcDbLine
 10
104.1480863105279
 20
58.79800818921284
 30
0.0
 11
104.2127812973879
 21
58.8065273230616
 31
0.0
  0
LINE
  5
27B
330
1F
100
AcDbEntity
  8
0
 60
     1
100
AcDbLine
 10
104.3980769613119
 20
59.04799883999682
 30
0.0
 11
104.3895578274631
 21
59.11272084313748
 31
0.0
  0
LINE
  5
282
330
1F
100
AcDbEntity
  8
0
 60
     1
100
AcDbLine
 10
104.3645767732385
 20
23.82300135220524
 30
0.0
 11
104.2730816359199
 21
24.16453216744236
 31
0.0
  0
LINE
  5
288
330
1F
100
AcDbEntity
  8
0
 60
     1
100
AcDbLine
 10
103.9065967827389
 20
23.88330169073729
 30
0.0
 11
104.0230909851359
 21
24.16453216744236
 31
0.0
  0
LINE
  5
28D
330
1F
100
AcDbEntity
  8
0
 60
     1
100
AcDbLine
 10
104.2730816359199
 20
24.16453216744236
 30
0.0
 11
104.0230909851359
 21
24.16453216744236
 31
0.0
  0
LINE
  5
291
330
1F
100
AcDbEntity
  8
0
 60
     1
100
AcDbLine
 10
104.1480863105279
 20
23.69801503224014
 30
0.0
 11
103.9712917695988
 21
23.77121114209506
 31
0.0
  0
LINE
  5
295
330
1F
100
AcDbEntity
  8
0
 60
     1
100
AcDbLine
 10
104.2127812973879
 20
23.7065341660889
 30
0.0
 11
104.3645767732385
 21
23.82300135220524
 31
0.0
  0
LINE
  5
298
330
1F
100
AcDbEntity
  8
0
 60
     1
100
AcDbLine
 10
103.9065967827389
 20
23.88330169073729
 30
0.0
 11
103.9712917695988
 21
23.77121114209506
 31
0.0
  0
LINE
  5
29A
330
1F
100
AcDbEntity
  8
0
 60
     1
100
AcDbLine
 10
104.1480863105279
 20
23.69801503224014
 30
0.0
 11
104.2127812973879
 21
23.7065341660889
 31
0.0
  0
LINE
  5
2A3
330
1F
100
AcDbEntity
  8
0
 60
     1
100
AcDbLine
 10
104.2127812973879
 20
53.43948200376799
 30
0.0
 11
103.9065967827389
 21
53.13330199183246
 31
0.0
  0
LINE
  5
2A7
330
1F
100
AcDbEntity
  8
0
 60
     1
100
AcDbLine
 10
104.1480863105279
 20
52.94799732248152
 30
0.0
 11
103.9712917695988
 21
53.02123395675748
 31
0.0
  0
LINE
  5
2AD
330
1F
100
AcDbEntity
  8
0
 60
     1
100
AcDbLine
 10
104.2127812973879
 20
52.95651645633029
 30
0.0
 11
104.3980769613119
 21
53.19800598411931
 31
0.0
  0
LINE
  5
2B2
330
1F
100
AcDbEntity
  8
0
 60
     1
100
AcDbLine
 10
104.3895578274631
 20
53.26270997640616
 30
0.0
 11
104.2127812973879
 21
53.43948200376799
 31
0.0
  0
LINE
  5
2B5
330
1F
100
AcDbEntity
  8
0
 60
     1
100
AcDbLine
 10
103.9065967827389
 20
53.13330199183246
 30
0.0
 11
103.9712917695988
 21
53.02123395675748
 31
0.0
  0
LINE
  5
2B7
330
1F
100
AcDbEntity
  8
0
 60
     1
100
AcDbLine
 10
104.1480863105279
 20
52.94799732248152
 30
0.0
 11
104.2127812973879
 21
52.95651645633029
 31
0.0
  0
LINE
  5
2B9
330
1F
100
AcDbEntity
  8
0
 60
     1
100
AcDbLine
 10
104.3980769613119
 20
53.19800598411931
 30
0.0
 11
104.3895578274631
 21
53.26270997640616
 31
0.0
  0
LINE
  5
2C2
330
1F
100
AcDbEntity
  8
0
 60
     1
100
AcDbLine
 10
104.2127812973879
 20
70.98947858225433
 30
0.0
 11
103.9065967827389
 21
70.68330307303226
 31
0.0
  0
LINE
  5
2C6
330
1F
100
AcDbEntity
  8
0
 60
     1
100
AcDbLine
 10
104.1480863105279
 20
70.49799390096787
 30
0.0
 11
103.9712917695988
 21
70.57123503795728
 31
0.0
  0
LINE
  5
2CC
330
1F
100
AcDbEntity
  8
0
 60
     1
100
AcDbLine
 10
104.2127812973879
 20
70.50653104567044
 30
0.0
 11
104.3980769613119
 21
70.74800256260566
 31
0.0
  0
LINE
  5
2D1
330
1F
100
AcDbEntity
  8
0
 60
     1
100
AcDbLine
 10
104.3895578274631
 20
70.81270655489252
 30
0.0
 11
104.2127812973879
 21
70.98947858225433
 31
0.0
  0
LINE
  5
2D4
330
1F
100
AcDbEntity
  8
0
 60
     1
100
AcDbLine
 10
103.9065967827389
 20
70.68330307303226
 30
0.0
 11
103.9712917695988
 21
70.57123503795728
 31
0.0
  0
LINE
  5
2D6
330
1F
100
AcDbEntity
  8
0
 60
     1
100
AcDbLine
 10
104.1480863105279
 20
70.49799390096787
 30
0.0
 11
104.2127812973879
 21
70.50653104567044
 31
0.0
  0
LINE
  5
2D8
330
1F
100
AcDbEntity
  8
0
 60
     1
100
AcDbLine
 10
104.3980769613119
 20
70.74800256260566
 30
0.0
 11
104.3895578274631
 21
70.81270655489252
 31
0.0
  0
LINE
  5
2E1
330
1F
100
AcDbEntity
  8
0
 60
     1
100
AcDbLine
 10
104.2127812973879
 20
65.13948572637682
 30
0.0
 11
103.9065967827389
 21
64.83331021715475
 31
0.0
  0
LINE
  5
2E5
330
1F
100
AcDbEntity
  8
0
 60
     1
100
AcDbLine
 10
104.1480863105279
 20
64.64800104509035
 30
0.0
 11
103.9712917695988
 21
64.72122417122597
 31
0.0
  0
LINE
  5
2EB
330
1F
100
AcDbEntity
  8
0
 60
     1
100
AcDbLine
 10
104.2127812973879
 20
64.65652017893912
 30
0.0
 11
104.3980769613119
 21
64.89800970672814
 31
0.0
  0
LINE
  5
2F0
330
1F
100
AcDbEntity
  8
0
 60
     1
100
AcDbLine
 10
104.3895578274631
 20
64.96271369901499
 30
0.0
 11
104.2127812973879
 21
65.13948572637682
 31
0.0
  0
LINE
  5
2F3
330
1F
100
AcDbEntity
  8
0
 60
     1
100
AcDbLine
 10
103.9065967827389
 20
64.83331021715475
 30
0.0
 11
103.9712917695988
 21
64.72122417122597
 31
0.0
  0
LINE
  5
2F5
330
1F
100
AcDbEntity
  8
0
 60
     1
100
AcDbLine
 10
104.1480863105279
 20
64.64800104509035
 30
0.0
 11
104.2127812973879
 21
64.65652017893912
 31
0.0
  0
LINE
  5
2F7
330
1F
100
AcDbEntity
  8
0
 60
     1
100
AcDbLine
 10
104.3980769613119
 20
64.89800970672814
 30
0.0
 11
104.3895578274631
 21
64.96271369901499
 31
0.0
  0
LINE
  5
300
330
1F
100
AcDbEntity
  8
0
 60
     1
100
AcDbLine
 10
104.2127812973879
 20
41.73949178929951
 30
0.0
 11
103.9065967827389
 21
41.43329826922363
 31
0.0
  0
LINE
  5
304
330
1F
100
AcDbEntity
  8
0
 60
     1
100
AcDbLine
 10
104.1480863105279
 20
41.24801161072649
 30
0.0
 11
103.9712917695988
 21
41.32123023414865
 31
0.0
  0
LINE
  5
30A
330
1F
100
AcDbEntity
  8
0
 60
     1
100
AcDbLine
 10
104.2127812973879
 20
41.25653074457526
 30
0.0
 11
104.3980769613119
 21
41.49800226151048
 31
0.0
  0
LINE
  5
30F
330
1F
100
AcDbEntity
  8
0
 60
     1
100
AcDbLine
 10
104.3895578274631
 20
41.56270625379733
 30
0.0
 11
104.2127812973879
 21
41.73949178929951
 31
0.0
  0
LINE
  5
312
330
1F
100
AcDbEntity
  8
0
 60
     1
100
AcDbLine
 10
103.9065967827389
 20
41.43329826922363
 30
0.0
 11
103.9712917695988
 21
41.32123023414865
 31
0.0
  0
LINE
  5
314
330
1F
100
AcDbEntity
  8
0
 60
     1
100
AcDbLine
 10
104.1480863105279
 20
41.24801161072649
 30
0.0
 11
104.2127812973879
 21
41.25653074457526
 31
0.0
  0
LINE
  5
316
330
1F
100
AcDbEntity
  8
0
 60
     1
100
AcDbLine
 10
104.3980769613119
 20
41.49800226151048
 30
0.0
 11
104.3895578274631
 21
41.56270625379733
 31
0.0
  0
LINE
  5
31D
330
1F
100
AcDbEntity
  8
0
 60
     1
100
AcDbLine
 10
33.8645836674986
 20
23.82301936305903
 30
0.0
 11
33.77308853017995
 21
24.16453216744236
 31
0.0
  0
LINE
  5
323
330
1F
100
AcDbEntity
  8
0
 60
     1
100
AcDbLine
 10
33.40658566614513
 20
23.88330169073729
 30
0.0
 11
33.52307086311526
 21
24.16453216744236
 31
0.0
  0
LINE
  5
328
330
1F
100
AcDbEntity
  8
0
 60
     1
100
AcDbLine
 10
33.77308853017995
 20
24.16453216744236
 30
0.0
 11
33.52307086311526
 21
24.16453216744236
 31
0.0
  0
LINE
  5
32C
330
1F
100
AcDbEntity
  8
0
 60
     1
100
AcDbLine
 10
33.64808419936105
 20
23.69801503224014
 30
0.0
 11
33.47128965843197
 21
23.77122915294885
 31
0.0
  0
LINE
  5
330
330
1F
100
AcDbEntity
  8
0
 60
     1
100
AcDbLine
 10
33.71277918622102
 20
23.7065341660889
 30
0.0
 11
33.8645836674986
 21
23.82301936305903
 31
0.0
  0
LINE
  5
333
330
1F
100
AcDbEntity
  8
0
 60
     1
100
AcDbLine
 10
33.40658566614513
 20
23.88330169073729
 30
0.0
 11
33.47128965843197
 21
23.77122915294885
 31
0.0
  0
LINE
  5
335
330
1F
100
AcDbEntity
  8
0
 60
     1
100
AcDbLine
 10
33.64808419936105
 20
23.69801503224014
 30
0.0
 11
33.71277918622102
 21
23.7065341660889
 31
0.0
  0
LINE
  5
33E
330
1F
100
AcDbEntity
  8
0
 60
     1
100
AcDbLine
 10
33.71277918622102
 20
35.88948092256818
 30
0.0
 11
33.40660367699893
 21
35.58330541334611
 31
0.0
  0
LINE
  5
342
330
1F
100
AcDbEntity
  8
0
 60
     1
100
AcDbLine
 10
33.64808419936105
 20
35.39801875484898
 30
0.0
 11
33.47128965843197
 21
35.4712418809846
 31
0.0
  0
LINE
  5
348
330
1F
100
AcDbEntity
  8
0
 60
     1
100
AcDbLine
 10
33.71277918622102
 20
35.40653788869774
 30
0.0
 11
33.89809286099885
 21
35.64800940563296
 31
0.0
  0
LINE
  5
34D
330
1F
100
AcDbEntity
  8
0
 60
     1
100
AcDbLine
 10
33.88957372715009
 20
35.71271339791981
 30
0.0
 11
33.71277918622102
 21
35.88948092256818
 31
0.0
  0
LINE
  5
350
330
1F
100
AcDbEntity
  8
0
 60
     1
100
AcDbLine
 10
33.40660367699893
 20
35.58330541334611
 30
0.0
 11
33.47128965843197
 21
35.4712418809846
 31
0.0
  0
LINE
  5
352
330
1F
100
AcDbEntity
  8
0
 60
     1
100
AcDbLine
 10
33.64808419936105
 20
35.39801875484898
 30
0.0
 11
33.71277918622102
 21
35.40653788869774
 31
0.0
  0
LINE
  5
354
330
1F
100
AcDbEntity
  8
0
 60
     1
100
AcDbLine
 10
33.89809286099885
 20
35.64800940563296
 30
0.0
 11
33.88957372715009
 21
35.71271339791981
 31
0.0
  0
LINE
  5
35D
330
1F
100
AcDbEntity
  8
0
 60
     1
100
AcDbLine
 10
33.71277918622102
 20
70.98949659310815
 30
0.0
 11
33.40660367699893
 21
70.68330307303226
 31
0.0
  0
LINE
  5
361
330
1F
100
AcDbEntity
  8
0
 60
     1
100
AcDbLine
 10
33.64808419936105
 20
70.49801191182166
 30
0.0
 11
33.47130766928578
 21
70.57123503795728
 31
0.0
  0
LINE
  5
367
330
1F
100
AcDbEntity
  8
0
 60
     1
100
AcDbLine
 10
33.71277918622102
 20
70.50653104567044
 30
0.0
 11
33.89809286099885
 21
70.74800256260566
 31
0.0
  0
LINE
  5
36C
330
1F
100
AcDbEntity
  8
0
 60
     1
100
AcDbLine
 10
33.88957372715009
 20
70.81270655489252
 30
0.0
 11
33.71277918622102
 21
70.98949659310815
 31
0.0
  0
LINE
  5
36F
330
1F
100
AcDbEntity
  8
0
 60
     1
100
AcDbLine
 10
33.40660367699893
 20
70.68330307303226
 30
0.0
 11
33.47130766928578
 21
70.57123503795728
 31
0.0
  0
LINE
  5
371
330
1F
100
AcDbEntity
  8
0
 60
     1
100
AcDbLine
 10
33.64808419936105
 20
70.49801191182166
 30
0.0
 11
33.71277918622102
 21
70.50653104567044
 31
0.0
  0
LINE
  5
373
330
1F
100
AcDbEntity
  8
0
 60
     1
100
AcDbLine
 10
33.89809286099885
 20
70.74800256260566
 30
0.0
 11
33.88957372715009
 21
70.81270655489252
 31
0.0
  0
LINE
  5
37C
330
1F
100
AcDbEntity
  8
0
 60
     1
100
AcDbLine
 10
33.71277918622102
 20
47.58948464517702
 30
0.0
 11
33.40660367699893
 21
47.28330913595494
 31
0.0
  0
LINE
  5
380
330
1F
100
AcDbEntity
  8
0
 60
     1
100
AcDbLine
 10
33.64808419936105
 20
47.09800446660401
 30
0.0
 11
33.47128965843197
 21
47.17122309002617
 31
0.0
  0
LINE
  5
386
330
1F
100
AcDbEntity
  8
0
 60
     1
100
AcDbLine
 10
33.71277918622102
 20
47.10652360045277
 30
0.0
 11
33.89809286099885
 21
47.3480131282418
 31
0.0
  0
LINE
  5
38B
330
1F
100
AcDbEntity
  8
0
 60
     1
100
AcDbLine
 10
33.88957372715009
 20
47.41271712052864
 30
0.0
 11
33.71277918622102
 21
47.58948464517702
 31
0.0
  0
LINE
  5
38E
330
1F
100
AcDbEntity
  8
0
 60
     1
100
AcDbLine
 10
33.40660367699893
 20
47.28330913595494
 30
0.0
 11
33.47128965843197
 21
47.17122309002617
 31
0.0
  0
LINE
  5
390
330
1F
100
AcDbEntity
  8
0
 60
     1
100
AcDbLine
 10
33.64808419936105
 20
47.09800446660401
 30
0.0
 11
33.71277918622102
 21
47.10652360045277
 31
0.0
  0
LINE
  5
392
330
1F
100
AcDbEntity
  8
0
 60
     1
100
AcDbLine
 10
33.89809286099885
 20
47.3480131282418
 30
0.0
 11
33.88957372715009
 21
47.41271712052864
 31
0.0
  0
LINE
  5
399
330
1F
100
AcDbEntity
  8
0
 60
     1
100
AcDbLine
 10
33.8645836674986
 20
29.6730077162231
 30
0.0
 11
33.77308853017995
 21
30.01452052060642
 31
0.0
  0
LINE
  5
39F
330
1F
100
AcDbEntity
  8
0
 60
     1
100
AcDbLine
 10
33.40658566614513
 20
29.73331706018205
 30
0.0
 11
33.52307086311526
 21
30.01452052060642
 31
0.0
  0
LINE
  5
3A4
330
1F
100
AcDbEntity
  8
0
 60
     1
100
AcDbLine
 10
33.77308853017995
 20
30.01452052060642
 30
0.0
 11
33.52307086311526
 21
30.01452052060642
 31
0.0
  0
LINE
  5
3A8
330
1F
100
AcDbEntity
  8
0
 60
     1
100
AcDbLine
 10
33.64808419936105
 20
29.5480033854042
 30
0.0
 11
33.47128965843197
 21
29.62122651153982
 31
0.0
  0
LINE
  5
3AC
330
1F
100
AcDbEntity
  8
0
 60
     1
100
AcDbLine
 10
33.71277918622102
 20
29.55652251925297
 30
0.0
 11
33.8645836674986
 21
29.6730077162231
 31
0.0
  0
LINE
  5
3AF
330
1F
100
AcDbEntity
  8
0
 60
     1
100
AcDbLine
 10
33.40658566614513
 20
29.73331706018205
 30
0.0
 11
33.47128965843197
 21
29.62122651153982
 31
0.0
  0
LINE
  5
3B1
330
1F
100
AcDbEntity
  8
0
 60
     1
100
AcDbLine
 10
33.64808419936105
 20
29.5480033854042
 30
0.0
 11
33.71277918622102
 21
29.55652251925297
 31
0.0
  0
LINE
  5
3BA
330
1F
100
AcDbEntity
  8
0
 60
     1
100
AcDbLine
 10
33.71277918622102
 20
41.73949178929951
 30
0.0
 11
33.40660367699893
 21
41.43329826922363
 31
0.0
  0
LINE
  5
3BE
330
1F
100
AcDbEntity
  8
0
 60
     1
100
AcDbLine
 10
33.64808419936105
 20
41.24801161072649
 30
0.0
 11
33.47128965843197
 21
41.32123023414865
 31
0.0
  0
LINE
  5
3C4
330
1F
100
AcDbEntity
  8
0
 60
     1
100
AcDbLine
 10
33.71277918622102
 20
41.25653074457526
 30
0.0
 11
33.89809286099885
 21
41.49800226151048
 31
0.0
  0
LINE
  5
3C9
330
1F
100
AcDbEntity
  8
0
 60
     1
100
AcDbLine
 10
33.88957372715009
 20
41.56272426465114
 30
0.0
 11
33.71277918622102
 21
41.73949178929951
 31
0.0
  0
LINE
  5
3CC
330
1F
100
AcDbEntity
  8
0
 60
     1
100
AcDbLine
 10
33.40660367699893
 20
41.43329826922363
 30
0.0
 11
33.47128965843197
 21
41.32123023414865
 31
0.0
  0
LINE
  5
3CE
330
1F
100
AcDbEntity
  8
0
 60
     1
100
AcDbLine
 10
33.64808419936105
 20
41.24801161072649
 30
0.0
 11
33.71277918622102
 21
41.25653074457526
 31
0.0
  0
LINE
  5
3D0
330
1F
100
AcDbEntity
  8
0
 60
     1
100
AcDbLine
 10
33.89809286099885
 20
41.49800226151048
 30
0.0
 11
33.88957372715009
 21
41.56272426465114
 31
0.0
  0
LINE
  5
3D9
330
1F
100
AcDbEntity
  8
0
 60
     1
100
AcDbLine
 10
33.71277918622102
 20
65.13950373723062
 30
0.0
 11
33.40660367699893
 21
64.83331021715475
 31
0.0
  0
LINE
  5
3DD
330
1F
100
AcDbEntity
  8
0
 60
     1
100
AcDbLine
 10
33.64808419936105
 20
64.64800104509035
 30
0.0
 11
33.47130766928578
 21
64.72124218207977
 31
0.0
  0
LINE
  5
3E3
330
1F
100
AcDbEntity
  8
0
 60
     1
100
AcDbLine
 10
33.71277918622102
 20
64.65653818979291
 30
0.0
 11
33.89809286099885
 21
64.89800970672814
 31
0.0
  0
LINE
  5
3E8
330
1F
100
AcDbEntity
  8
0
 60
     1
100
AcDbLine
 10
33.88957372715009
 20
64.96271369901499
 30
0.0
 11
33.71277918622102
 21
65.13950373723062
 31
0.0
  0
LINE
  5
3EB
330
1F
100
AcDbEntity
  8
0
 60
     1
100
AcDbLine
 10
33.40660367699893
 20
64.83331021715475
 30
0.0
 11
33.47130766928578
 21
64.72124218207977
 31
0.0
  0
LINE
  5
3ED
330
1F
100
AcDbEntity
  8
0
 60
     1
100
AcDbLine
 10
33.64808419936105
 20
64.64800104509035
 30
0.0
 11
33.71277918622102
 21
64.65653818979291
 31
0.0
  0
LINE
  5
3EF
330
1F
100
AcDbEntity
  8
0
 60
     1
100
AcDbLine
 10
33.89809286099885
 20
64.89800970672814
 30
0.0
 11
33.88957372715009
 21
64.96271369901499
 31
0.0
  0
LINE
  5
3F8
330
1F
100
AcDbEntity
  8
0
 60
     1
100
AcDbLine
 10
33.71277918622102
 20
59.28949287049931
 30
0.0
 11
33.40660367699893
 21
58.98329484770997
 31
0.0
  0
LINE
  5
3FC
330
1F
100
AcDbEntity
  8
0
 60
     1
100
AcDbLine
 10
33.64808419936105
 20
58.79800818921284
 30
0.0
 11
33.47128965843197
 21
58.871226812635
 31
0.0
  0
LINE
  5
402
330
1F
100
AcDbEntity
  8
0
 60
     1
100
AcDbLine
 10
33.71277918622102
 20
58.8065273230616
 30
0.0
 11
33.89809286099885
 21
59.04799883999682
 31
0.0
  0
LINE
  5
407
330
1F
100
AcDbEntity
  8
0
 60
     1
100
AcDbLine
 10
33.88957372715009
 20
59.11272084313748
 30
0.0
 11
33.71277918622102
 21
59.28949287049931
 31
0.0
  0
LINE
  5
40A
330
1F
100
AcDbEntity
  8
0
 60
     1
100
AcDbLine
 10
33.40660367699893
 20
58.98329484770997
 30
0.0
 11
33.47128965843197
 21
58.871226812635
 31
0.0
  0
LINE
  5
40C
330
1F
100
AcDbEntity
  8
0
 60
     1
100
AcDbLine
 10
33.64808419936105
 20
58.79800818921284
 30
0.0
 11
33.71277918622102
 21
58.8065273230616
 31
0.0
  0
LINE
  5
40E
330
1F
100
AcDbEntity
  8
0
 60
     1
100
AcDbLine
 10
33.89809286099885
 20
59.04799883999682
 30
0.0
 11
33.88957372715009
 21
59.11272084313748
 31
0.0
  0
LINE
  5
417
330
1F
100
AcDbEntity
  8
0
 60
     1
100
AcDbLine
 10
33.71277918622102
 20
53.43950001462179
 30
0.0
 11
33.40660367699893
 21
53.13330199183246
 31
0.0
  0
LINE
  5
41B
330
1F
100
AcDbEntity
  8
0
 60
     1
100
AcDbLine
 10
33.64808419936105
 20
52.94801533333533
 30
0.0
 11
33.47128965843197
 21
53.02123395675748
 31
0.0
  0
LINE
  5
421
330
1F
100
AcDbEntity
  8
0
 60
     1
100
AcDbLine
 10
33.71277918622102
 20
52.95653446718408
 30
0.0
 11
33.89809286099885
 21
53.19800598411931
 31
0.0
  0
LINE
  5
426
330
1F
100
AcDbEntity
  8
0
 60
     1
100
AcDbLine
 10
33.88957372715009
 20
53.26270997640616
 30
0.0
 11
33.71277918622102
 21
53.43950001462179
 31
0.0
  0
LINE
  5
429
330
1F
100
AcDbEntity
  8
0
 60
     1
100
AcDbLine
 10
33.40660367699893
 20
53.13330199183246
 30
0.0
 11
33.47128965843197
 21
53.02123395675748
 31
0.0
  0
LINE
  5
42B
330
1F
100
AcDbEntity
  8
0
 60
     1
100
AcDbLine
 10
33.64808419936105
 20
52.94801533333533
 30
0.0
 11
33.71277918622102
 21
52.95653446718408
 31
0.0
  0
LINE
  5
42D
330
1F
100
AcDbEntity
  8
0
 60
     1
100
AcDbLine
 10
33.89809286099885
 20
53.19800598411931
 30
0.0
 11
33.88957372715009
 21
53.26270997640616
 31
0.0
  0
LINE
  5
436
330
1F
100
AcDbEntity
  8
0
 60
     1
100
AcDbLine
 10
57.71277319874714
 20
47.58948464517702
 30
0.0
 11
57.40659768952507
 21
47.28330913595494
 31
0.0
  0
LINE
  5
43A
330
1F
100
AcDbEntity
  8
0
 60
     1
100
AcDbLine
 10
57.6480692064603
 20
47.09800446660401
 30
0.0
 11
57.47130168181191
 21
47.17122309002617
 31
0.0
  0
LINE
  5
440
330
1F
100
AcDbEntity
  8
0
 60
     1
100
AcDbLine
 10
57.71277319874714
 20
47.10652360045277
 30
0.0
 11
57.89807786809809
 21
47.3480131282418
 31
0.0
  0
LINE
  5
445
330
1F
100
AcDbEntity
  8
0
 60
     1
100
AcDbLine
 10
57.88955873424932
 20
47.41271712052864
 30
0.0
 11
57.71277319874714
 21
47.58948464517702
 31
0.0
  0
LINE
  5
448
330
1F
100
AcDbEntity
  8
0
 60
     1
100
AcDbLine
 10
57.40659768952507
 20
47.28330913595494
 30
0.0
 11
57.47130168181191
 21
47.17122309002617
 31
0.0
  0
LINE
  5
44A
330
1F
100
AcDbEntity
  8
0
 60
     1
100
AcDbLine
 10
57.6480692064603
 20
47.09800446660401
 30
0.0
 11
57.71277319874714
 21
47.10652360045277
 31
0.0
  0
LINE
  5
44C
330
1F
100
AcDbEntity
  8
0
 60
     1
100
AcDbLine
 10
57.89807786809809
 20
47.3480131282418
 30
0.0
 11
57.88955873424932
 21
47.41271712052864
 31
0.0
  0
LINE
  5
455
330
1F
100
AcDbEntity
  8
0
 60
     1
100
AcDbLine
 10
57.71277319874714
 20
59.28949287049931
 30
0.0
 11
57.40659768952507
 21
58.98329484770997
 31
0.0
  0
LINE
  5
459
330
1F
100
AcDbEntity
  8
0
 60
     1
100
AcDbLine
 10
57.6480692064603
 20
58.79800818921284
 30
0.0
 11
57.47130168181191
 21
58.871226812635
 31
0.0
  0
LINE
  5
45F
330
1F
100
AcDbEntity
  8
0
 60
     1
100
AcDbLine
 10
57.71277319874714
 20
58.8065273230616
 30
0.0
 11
57.89807786809809
 21
59.04799883999682
 31
0.0
  0
LINE
  5
464
330
1F
100
AcDbEntity
  8
0
 60
     1
100
AcDbLine
 10
57.88955873424932
 20
59.11272084313748
 30
0.0
 11
57.71277319874714
 21
59.28949287049931
 31
0.0
  0
LINE
  5
467
330
1F
100
AcDbEntity
  8
0
 60
     1
100
AcDbLine
 10
57.40659768952507
 20
58.98329484770997
 30
0.0
 11
57.47130168181191
 21
58.871226812635
 31
0.0
  0
LINE
  5
469
330
1F
100
AcDbEntity
  8
0
 60
     1
100
AcDbLine
 10
57.6480692064603
 20
58.79800818921284
 30
0.0
 11
57.71277319874714
 21
58.8065273230616
 31
0.0
  0
LINE
  5
46B
330
1F
100
AcDbEntity
  8
0
 60
     1
100
AcDbLine
 10
57.89807786809809
 20
59.04799883999682
 30
0.0
 11
57.88955873424932
 21
59.11272084313748
 31
0.0
  0
LINE
  5
474
330
1F
100
AcDbEntity
  8
0
 60
     1
100
AcDbLine
 10
57.71277319874714
 20
41.73949178929951
 30
0.0
 11
57.40659768952507
 21
41.43329826922363
 31
0.0
  0
LINE
  5
478
330
1F
100
AcDbEntity
  8
0
 60
     1
100
AcDbLine
 10
57.6480692064603
 20
41.24801161072649
 30
0.0
 11
57.47130168181191
 21
41.32123023414865
 31
0.0
  0
LINE
  5
47E
330
1F
100
AcDbEntity
  8
0
 60
     1
100
AcDbLine
 10
57.71277319874714
 20
41.25653074457526
 30
0.0
 11
57.89807786809809
 21
41.49800226151048
 31
0.0
  0
LINE
  5
483
330
1F
100
AcDbEntity
  8
0
 60
     1
100
AcDbLine
 10
57.88955873424932
 20
41.56270625379733
 30
0.0
 11
57.71277319874714
 21
41.73949178929951
 31
0.0
  0
LINE
  5
486
330
1F
100
AcDbEntity
  8
0
 60
     1
100
AcDbLine
 10
57.40659768952507
 20
41.43329826922363
 30
0.0
 11
57.47130168181191
 21
41.32123023414865
 31
0.0
  0
LINE
  5
488
330
1F
100
AcDbEntity
  8
0
 60
     1
100
AcDbLine
 10
57.6480692064603
 20
41.24801161072649
 30
0.0
 11
57.71277319874714
 21
41.25653074457526
 31
0.0
  0
LINE
  5
48A
330
1F
100
AcDbEntity
  8
0
 60
     1
100
AcDbLine
 10
57.89807786809809
 20
41.49800226151048
 30
0.0
 11
57.88955873424932
 21
41.56270625379733
 31
0.0
  0
LINE
  5
493
330
1F
100
AcDbEntity
  8
0
 60
     1
100
AcDbLine
 10
57.71279120960095
 20
65.13948572637682
 30
0.0
 11
57.40659768952507
 21
64.83331021715475
 31
0.0
  0
LINE
  5
497
330
1F
100
AcDbEntity
  8
0
 60
     1
100
AcDbLine
 10
57.6480692064603
 20
64.64800104509035
 30
0.0
 11
57.47130168181191
 21
64.72124218207977
 31
0.0
  0
LINE
  5
49D
330
1F
100
AcDbEntity
  8
0
 60
     1
100
AcDbLine
 10
57.71279120960095
 20
64.65652017893912
 30
0.0
 11
57.89807786809809
 21
64.89800970672814
 31
0.0
  0
LINE
  5
4A2
330
1F
100
AcDbEntity
  8
0
 60
     1
100
AcDbLine
 10
57.88955873424932
 20
64.96271369901499
 30
0.0
 11
57.71279120960095
 21
65.13948572637682
 31
0.0
  0
LINE
  5
4A5
330
1F
100
AcDbEntity
  8
0
 60
     1
100
AcDbLine
 10
57.40659768952507
 20
64.83331021715475
 30
0.0
 11
57.47130168181191
 21
64.72124218207977
 31
0.0
  0
LINE
  5
4A7
330
1F
100
AcDbEntity
  8
0
 60
     1
100
AcDbLine
 10
57.6480692064603
 20
64.64800104509035
 30
0.0
 11
57.71279120960095
 21
64.65652017893912
 31
0.0
  0
LINE
  5
4A9
330
1F
100
AcDbEntity
  8
0
 60
     1
100
AcDbLine
 10
57.89807786809809
 20
64.89800970672814
 30
0.0
 11
57.88955873424932
 21
64.96271369901499
 31
0.0
  0
LINE
  5
4B2
330
1F
100
AcDbEntity
  8
0
 60
     1
100
AcDbLine
 10
57.71277319874714
 20
53.43950001462179
 30
0.0
 11
57.40659768952507
 21
53.13330199183246
 31
0.0
  0
LINE
  5
4B6
330
1F
100
AcDbEntity
  8
0
 60
     1
100
AcDbLine
 10
57.6480692064603
 20
52.94799732248152
 30
0.0
 11
57.47130168181191
 21
53.02123395675748
 31
0.0
  0
LINE
  5
4BC
330
1F
100
AcDbEntity
  8
0
 60
     1
100
AcDbLine
 10
57.71277319874714
 20
52.95653446718408
 30
0.0
 11
57.89807786809809
 21
53.19800598411931
 31
0.0
  0
LINE
  5
4C1
330
1F
100
AcDbEntity
  8
0
 60
     1
100
AcDbLine
 10
57.88955873424932
 20
53.26270997640616
 30
0.0
 11
57.71277319874714
 21
53.43950001462179
 31
0.0
  0
LINE
  5
4C4
330
1F
100
AcDbEntity
  8
0
 60
     1
100
AcDbLine
 10
57.40659768952507
 20
53.13330199183246
 30
0.0
 11
57.47130168181191
 21
53.02123395675748
 31
0.0
  0
LINE
  5
4C6
330
1F
100
AcDbEntity
  8
0
 60
     1
100
AcDbLine
 10
57.6480692064603
 20
52.94799732248152
 30
0.0
 11
57.71277319874714
 21
52.95653446718408
 31
0.0
  0
LINE
  5
4C8
330
1F
100
AcDbEntity
  8
0
 60
     1
100
AcDbLine
 10
57.89807786809809
 20
53.19800598411931
 30
0.0
 11
57.88955873424932
 21
53.26270997640616
 31
0.0
  0
LINE
  5
4CF
330
1F
100
AcDbEntity
  8
0
 60
     1
100
AcDbLine
 10
57.86459569087854
 20
23.82300135220524
 30
0.0
 11
57.77307353727919
 21
24.16453216744236
 31
0.0
  0
LINE
  5
4D5
330
1F
100
AcDbEntity
  8
0
 60
     1
100
AcDbLine
 10
57.40659768952507
 20
23.88330169073729
 30
0.0
 11
57.5230828864952
 21
24.16453216744236
 31
0.0
  0
LINE
  5
4DA
330
1F
100
AcDbEntity
  8
0
 60
     1
100
AcDbLine
 10
57.77307353727919
 20
24.16453216744236
 30
0.0
 11
57.5230828864952
 21
24.16453216744236
 31
0.0
  0
LINE
  5
4DE
330
1F
100
AcDbEntity
  8
0
 60
     1
100
AcDbLine
 10
57.6480692064603
 20
23.69801503224014
 30
0.0
 11
57.47130168181191
 21
23.77122915294885
 31
0.0
  0
LINE
  5
4E2
330
1F
100
AcDbEntity
  8
0
 60
     1
100
AcDbLine
 10
57.71277319874714
 20
23.7065341660889
 30
0.0
 11
57.86459569087854
 21
23.82300135220524
 31
0.0
  0
LINE
  5
4E5
330
1F
100
AcDbEntity
  8
0
 60
     1
100
AcDbLine
 10
57.40659768952507
 20
23.88330169073729
 30
0.0
 11
57.47130168181191
 21
23.77122915294885
 31
0.0
  0
LINE
  5
4E7
330
1F
100
AcDbEntity
  8
0
 60
     1
100
AcDbLine
 10
57.6480692064603
 20
23.69801503224014
 30
0.0
 11
57.71277319874714
 21
23.7065341660889
 31
0.0
  0
LINE
  5
4F0
330
1F
100
AcDbEntity
  8
0
 60
     1
100
AcDbLine
 10
57.71279120960095
 20
70.98949659310815
 30
0.0
 11
57.40659768952507
 21
70.68330307303226
 31
0.0
  0
LINE
  5
4F4
330
1F
100
AcDbEntity
  8
0
 60
     1
100
AcDbLine
 10
57.6480692064603
 20
70.49801191182166
 30
0.0
 11
57.47130168181191
 21
70.57123503795728
 31
0.0
  0
LINE
  5
4FA
330
1F
100
AcDbEntity
  8
0
 60
     1
100
AcDbLine
 10
57.71279120960095
 20
70.50653104567044
 30
0.0
 11
57.89807786809809
 21
70.74800256260566
 31
0.0
  0
LINE
  5
4FF
330
1F
100
AcDbEntity
  8
0
 60
     1
100
AcDbLine
 10
57.88955873424932
 20
70.81270655489252
 30
0.0
 11
57.71279120960095
 21
70.98949659310815
 31
0.0
  0
LINE
  5
502
330
1F
100
AcDbEntity
  8
0
 60
     1
100
AcDbLine
 10
57.40659768952507
 20
70.68330307303226
 30
0.0
 11
57.47130168181191
 21
70.57123503795728
 31
0.0
  0
LINE
  5
504
330
1F
100
AcDbEntity
  8
0
 60
     1
100
AcDbLine
 10
57.6480692064603
 20
70.49801191182166
 30
0.0
 11
57.71279120960095
 21
70.50653104567044
 31
0.0
  0
LINE
  5
506
330
1F
100
AcDbEntity
  8
0
 60
     1
100
AcDbLine
 10
57.89807786809809
 20
70.74800256260566
 30
0.0
 11
57.88955873424932
 21
70.81270655489252
 31
0.0
  0
LINE
  5
50D
330
1F
100
AcDbEntity
  8
0
 60
     1
100
AcDbLine
 10
57.86459569087854
 20
29.6730077162231
 30
0.0
 11
57.77307353727919
 21
30.01452052060642
 31
0.0
  0
LINE
  5
513
330
1F
100
AcDbEntity
  8
0
 60
     1
100
AcDbLine
 10
57.40659768952507
 20
29.73329004390135
 30
0.0
 11
57.5230828864952
 21
30.01452052060642
 31
0.0
  0
LINE
  5
518
330
1F
100
AcDbEntity
  8
0
 60
     1
100
AcDbLine
 10
57.77307353727919
 20
30.01452052060642
 30
0.0
 11
57.5230828864952
 21
30.01452052060642
 31
0.0
  0
LINE
  5
51C
330
1F
100
AcDbEntity
  8
0
 60
     1
100
AcDbLine
 10
57.6480692064603
 20
29.5480033854042
 30
0.0
 11
57.47130168181191
 21
29.62122651153982
 31
0.0
  0
LINE
  5
520
330
1F
100
AcDbEntity
  8
0
 60
     1
100
AcDbLine
 10
57.71277319874714
 20
29.55652251925297
 30
0.0
 11
57.86459569087854
 21
29.6730077162231
 31
0.0
  0
LINE
  5
523
330
1F
100
AcDbEntity
  8
0
 60
     1
100
AcDbLine
 10
57.40659768952507
 20
29.73329004390135
 30
0.0
 11
57.47130168181191
 21
29.62122651153982
 31
0.0
  0
LINE
  5
525
330
1F
100
AcDbEntity
  8
0
 60
     1
100
AcDbLine
 10
57.6480692064603
 20
29.5480033854042
 30
0.0
 11
57.71277319874714
 21
29.55652251925297
 31
0.0
  0
LINE
  5
52E
330
1F
100
AcDbEntity
  8
0
 60
     1
100
AcDbLine
 10
57.71277319874714
 20
35.88948092256818
 30
0.0
 11
57.40659768952507
 21
35.58330541334611
 31
0.0
  0
LINE
  5
532
330
1F
100
AcDbEntity
  8
0
 60
     1
100
AcDbLine
 10
57.6480692064603
 20
35.39801875484898
 30
0.0
 11
57.47130168181191
 21
35.4712418809846
 31
0.0
  0
LINE
  5
538
330
1F
100
AcDbEntity
  8
0
 60
     1
100
AcDbLine
 10
57.71277319874714
 20
35.40653788869774
 30
0.0
 11
57.89807786809809
 21
35.64800940563296
 31
0.0
  0
LINE
  5
53D
330
1F
100
AcDbEntity
  8
0
 60
     1
100
AcDbLine
 10
57.88955873424932
 20
35.71271339791981
 30
0.0
 11
57.71277319874714
 21
35.88948092256818
 31
0.0
  0
LINE
  5
540
330
1F
100
AcDbEntity
  8
0
 60
     1
100
AcDbLine
 10
57.40659768952507
 20
35.58330541334611
 30
0.0
 11
57.47130168181191
 21
35.4712418809846
 31
0.0
  0
LINE
  5
542
330
1F
100
AcDbEntity
  8
0
 60
     1
100
AcDbLine
 10
57.6480692064603
 20
35.39801875484898
 30
0.0
 11
57.71277319874714
 21
35.40653788869774
 31
0.0
  0
LINE
  5
544
330
1F
100
AcDbEntity
  8
0
 60
     1
100
AcDbLine
 10
57.89807786809809
 20
35.64800940563296
 30
0.0
 11
57.88955873424932
 21
35.71271339791981
 31
0.0
  0
LINE
  5
54D
330
1F
100
AcDbEntity
  8
0
 60
     1
100
AcDbLine
 10
81.712794227554
 20
70.98949659310815
 30
0.0
 11
81.40660971290502
 21
70.68330307303226
 31
0.0
  0
LINE
  5
551
330
1F
100
AcDbEntity
  8
0
 60
     1
100
AcDbLine
 10
81.64808122984023
 20
70.49801191182166
 30
0.0
 11
81.47130469976495
 21
70.57123503795728
 31
0.0
  0
LINE
  5
557
330
1F
100
AcDbEntity
  8
0
 60
     1
100
AcDbLine
 10
81.712794227554
 20
70.50653104567044
 30
0.0
 11
81.89808989147802
 21
70.74800256260566
 31
0.0
  0
LINE
  5
55C
330
1F
100
AcDbEntity
  8
0
 60
     1
100
AcDbLine
 10
81.88957075762926
 20
70.81270655489252
 30
0.0
 11
81.712794227554
 21
70.98949659310815
 31
0.0
  0
LINE
  5
55F
330
1F
100
AcDbEntity
  8
0
 60
     1
100
AcDbLine
 10
81.40660971290502
 20
70.68330307303226
 30
0.0
 11
81.47130469976495
 21
70.57123503795728
 31
0.0
  0
LINE
  5
561
330
1F
100
AcDbEntity
  8
0
 60
     1
100
AcDbLine
 10
81.64808122984023
 20
70.49801191182166
 30
0.0
 11
81.712794227554
 21
70.50653104567044
 31
0.0
  0
LINE
  5
563
330
1F
100
AcDbEntity
  8
0
 60
     1
100
AcDbLine
 10
81.89808989147802
 20
70.74800256260566
 30
0.0
 11
81.88957075762926
 21
70.81270655489252
 31
0.0
  0
LINE
  5
56C
330
1F
100
AcDbEntity
  8
0
 60
     1
100
AcDbLine
 10
81.712794227554
 20
35.88948092256818
 30
0.0
 11
81.40660971290502
 21
35.58328740249232
 31
0.0
  0
LINE
  5
570
330
1F
100
AcDbEntity
  8
0
 60
     1
100
AcDbLine
 10
81.64808122984023
 20
35.39800074399517
 30
0.0
 11
81.47130469976495
 21
35.4712418809846
 31
0.0
  0
LINE
  5
576
330
1F
100
AcDbEntity
  8
0
 60
     1
100
AcDbLine
 10
81.712794227554
 20
35.40651987784393
 30
0.0
 11
81.89808989147802
 21
35.64800940563296
 31
0.0
  0
LINE
  5
57B
330
1F
100
AcDbEntity
  8
0
 60
     1
100
AcDbLine
 10
81.88957075762926
 20
35.71271339791981
 30
0.0
 11
81.712794227554
 21
35.88948092256818
 31
0.0
  0
LINE
  5
57E
330
1F
100
AcDbEntity
  8
0
 60
     1
100
AcDbLine
 10
81.40660971290502
 20
35.58328740249232
 30
0.0
 11
81.47130469976495
 21
35.4712418809846
 31
0.0
  0
LINE
  5
580
330
1F
100
AcDbEntity
  8
0
 60
     1
100
AcDbLine
 10
81.64808122984023
 20
35.39800074399517
 30
0.0
 11
81.712794227554
 21
35.40651987784393
 31
0.0
  0
LINE
  5
582
330
1F
100
AcDbEntity
  8
0
 60
     1
100
AcDbLine
 10
81.89808989147802
 20
35.64800940563296
 30
0.0
 11
81.88957075762926
 21
35.71271339791981
 31
0.0
  0
LINE
  5
58B
330
1F
100
AcDbEntity
  8
0
 60
     1
100
AcDbLine
 10
81.712794227554
 20
59.28949287049931
 30
0.0
 11
81.40660971290502
 21
58.98329484770997
 31
0.0
  0
LINE
  5
58F
330
1F
100
AcDbEntity
  8
0
 60
     1
100
AcDbLine
 10
81.64808122984023
 20
58.79800818921284
 30
0.0
 11
81.47130469976495
 21
58.871226812635
 31
0.0
  0
LINE
  5
595
330
1F
100
AcDbEntity
  8
0
 60
     1
100
AcDbLine
 10
81.712794227554
 20
58.8065273230616
 30
0.0
 11
81.89808989147802
 21
59.04799883999682
 31
0.0
  0
LINE
  5
59A
330
1F
100
AcDbEntity
  8
0
 60
     1
100
AcDbLine
 10
81.88957075762926
 20
59.11272084313748
 30
0.0
 11
81.712794227554
 21
59.28949287049931
 31
0.0
  0
LINE
  5
59D
330
1F
100
AcDbEntity
  8
0
 60
     1
100
AcDbLine
 10
81.40660971290502
 20
58.98329484770997
 30
0.0
 11
81.47130469976495
 21
58.871226812635
 31
0.0
  0
LINE
  5
59F
330
1F
100
AcDbEntity
  8
0
 60
     1
100
AcDbLine
 10
81.64808122984023
 20
58.79800818921284
 30
0.0
 11
81.712794227554
 21
58.8065273230616
 31
0.0
  0
LINE
  5
5A1
330
1F
100
AcDbEntity
  8
0
 60
     1
100
AcDbLine
 10
81.89808989147802
 20
59.04799883999682
 30
0.0
 11
81.88957075762926
 21
59.11272084313748
 31
0.0
  0
LINE
  5
5A8
330
1F
100
AcDbEntity
  8
0
 60
     1
100
AcDbLine
 10
81.86458970340465
 20
29.6730077162231
 30
0.0
 11
81.77307655523224
 21
30.01452052060642
 31
0.0
  0
LINE
  5
5AE
330
1F
100
AcDbEntity
  8
0
 60
     1
100
AcDbLine
 10
81.40659170205122
 20
29.73329004390135
 30
0.0
 11
81.52308590444825
 21
30.01452052060642
 31
0.0
  0
LINE
  5
5B3
330
1F
100
AcDbEntity
  8
0
 60
     1
100
AcDbLine
 10
81.77307655523224
 20
30.01452052060642
 30
0.0
 11
81.52308590444825
 21
30.01452052060642
 31
0.0
  0
LINE
  5
5B7
330
1F
100
AcDbEntity
  8
0
 60
     1
100
AcDbLine
 10
81.64808122984023
 20
29.5480033854042
 30
0.0
 11
81.47130469976495
 21
29.62122651153982
 31
0.0
  0
LINE
  5
5BB
330
1F
100
AcDbEntity
  8
0
 60
     1
100
AcDbLine
 10
81.712794227554
 20
29.55652251925297
 30
0.0
 11
81.86458970340465
 21
29.6730077162231
 31
0.0
  0
LINE
  5
5BE
330
1F
100
AcDbEntity
  8
0
 60
     1
100
AcDbLine
 10
81.40659170205122
 20
29.73329004390135
 30
0.0
 11
81.47130469976495
 21
29.62122651153982
 31
0.0
  0
LINE
  5
5C0
330
1F
100
AcDbEntity
  8
0
 60
     1
100
AcDbLine
 10
81.64808122984023
 20
29.5480033854042
 30
0.0
 11
81.712794227554
 21
29.55652251925297
 31
0.0
  0
LINE
  5
5C7
330
1F
100
AcDbEntity
  8
0
 60
     1
100
AcDbLine
 10
81.86458970340465
 20
23.82300135220524
 30
0.0
 11
81.77307655523224
 21
24.16453216744236
 31
0.0
  0
LINE
  5
5CD
330
1F
100
AcDbEntity
  8
0
 60
     1
100
AcDbLine
 10
81.40659170205122
 20
23.88330169073729
 30
0.0
 11
81.52308590444825
 21
24.16453216744236
 31
0.0
  0
LINE
  5
5D2
330
1F
100
AcDbEntity
  8
0
 60
     1
100
AcDbLine
 10
81.77307655523224
 20
24.16453216744236
 30
0.0
 11
81.52308590444825
 21
24.16453216744236
 31
0.0
  0
LINE
  5
5D6
330
1F
100
AcDbEntity
  8
0
 60
     1
100
AcDbLine
 10
81.64808122984023
 20
23.69801503224014
 30
0.0
 11
81.47130469976495
 21
23.77122915294885
 31
0.0
  0
LINE
  5
5DA
330
1F
100
AcDbEntity
  8
0
 60
     1
100
AcDbLine
 10
81.712794227554
 20
23.7065341660889
 30
0.0
 11
81.86458970340465
 21
23.82300135220524
 31
0.0
  0
LINE
  5
5DD
330
1F
100
AcDbEntity
  8
0
 60
     1
100
AcDbLine
 10
81.40659170205122
 20
23.88330169073729
 30
0.0
 11
81.47130469976495
 21
23.77122915294885
 31
0.0
  0
LINE
  5
5DF
330
1F
100
AcDbEntity
  8
0
 60
     1
100
AcDbLine
 10
81.64808122984023
 20
23.69801503224014
 30
0.0
 11
81.712794227554
 21
23.7065341660889
 31
0.0
  0
LINE
  5
5E8
330
1F
100
AcDbEntity
  8
0
 60
     1
100
AcDbLine
 10
81.712794227554
 20
53.43948200376799
 30
0.0
 11
81.40660971290502
 21
53.13330199183246
 31
0.0
  0
LINE
  5
5EC
330
1F
100
AcDbEntity
  8
0
 60
     1
100
AcDbLine
 10
81.64808122984023
 20
52.94799732248152
 30
0.0
 11
81.47130469976495
 21
53.02123395675748
 31
0.0
  0
LINE
  5
5F2
330
1F
100
AcDbEntity
  8
0
 60
     1
100
AcDbLine
 10
81.712794227554
 20
52.95653446718408
 30
0.0
 11
81.89808989147802
 21
53.19800598411931
 31
0.0
  0
LINE
  5
5F7
330
1F
100
AcDbEntity
  8
0
 60
     1
100
AcDbLine
 10
81.88957075762926
 20
53.26270997640616
 30
0.0
 11
81.712794227554
 21
53.43948200376799
 31
0.0
  0
LINE
  5
5FA
330
1F
100
AcDbEntity
  8
0
 60
     1
100
AcDbLine
 10
81.40660971290502
 20
53.13330199183246
 30
0.0
 11
81.47130469976495
 21
53.02123395675748
 31
0.0
  0
LINE
  5
5FC
330
1F
100
AcDbEntity
  8
0
 60
     1
100
AcDbLine
 10
81.64808122984023
 20
52.94799732248152
 30
0.0
 11
81.712794227554
 21
52.95653446718408
 31
0.0
  0
LINE
  5
5FE
330
1F
100
AcDbEntity
  8
0
 60
     1
100
AcDbLine
 10
81.89808989147802
 20
53.19800598411931
 30
0.0
 11
81.88957075762926
 21
53.26270997640616
 31
0.0
  0
LINE
  5
607
330
1F
100
AcDbEntity
  8
0
 60
     1
100
AcDbLine
 10
81.712794227554
 20
41.73949178929951
 30
0.0
 11
81.40660971290502
 21
41.43329826922363
 31
0.0
  0
LINE
  5
60B
330
1F
100
AcDbEntity
  8
0
 60
     1
100
AcDbLine
 10
81.64808122984023
 20
41.24801161072649
 30
0.0
 11
81.47130469976495
 21
41.32123023414865
 31
0.0
  0
LINE
  5
611
330
1F
100
AcDbEntity
  8
0
 60
     1
100
AcDbLine
 10
81.712794227554
 20
41.25653074457526
 30
0.0
 11
81.89808989147802
 21
41.49800226151048
 31
0.0
  0
LINE
  5
616
330
1F
100
AcDbEntity
  8
0
 60
     1
100
AcDbLine
 10
81.88957075762926
 20
41.56270625379733
 30
0.0
 11
81.712794227554
 21
41.73949178929951
 31
0.0
  0
LINE
  5
619
330
1F
100
AcDbEntity
  8
0
 60
     1
100
AcDbLine
 10
81.40660971290502
 20
41.43329826922363
 30
0.0
 11
81.47130469976495
 21
41.32123023414865
 31
0.0
  0
LINE
  5
61B
330
1F
100
AcDbEntity
  8
0
 60
     1
100
AcDbLine
 10
81.64808122984023
 20
41.24801161072649
 30
0.0
 11
81.712794227554
 21
41.25653074457526
 31
0.0
  0
LINE
  5
61D
330
1F
100
AcDbEntity
  8
0
 60
     1
100
AcDbLine
 10
81.89808989147802
 20
41.49800226151048
 30
0.0
 11
81.88957075762926
 21
41.56270625379733
 31
0.0
  0
LINE
  5
626
330
1F
100
AcDbEntity
  8
0
 60
     1
100
AcDbLine
 10
81.712794227554
 20
65.13948572637682
 30
0.0
 11
81.40660971290502
 21
64.83331021715475
 31
0.0
  0
LINE
  5
62A
330
1F
100
AcDbEntity
  8
0
 60
     1
100
AcDbLine
 10
81.64808122984023
 20
64.64800104509035
 30
0.0
 11
81.47130469976495
 21
64.72122417122597
 31
0.0
  0
LINE
  5
630
330
1F
100
AcDbEntity
  8
0
 60
     1
100
AcDbLine
 10
81.712794227554
 20
64.65652017893912
 30
0.0
 11
81.89808989147802
 21
64.89800970672814
 31
0.0
  0
LINE
  5
635
330
1F
100
AcDbEntity
  8
0
 60
     1
100
AcDbLine
 10
81.88957075762926
 20
64.96271369901499
 30
0.0
 11
81.712794227554
 21
65.13948572637682
 31
0.0
  0
LINE
  5
638
330
1F
100
AcDbEntity
  8
0
 60
     1
100
AcDbLine
 10
81.40660971290502
 20
64.83331021715475
 30
0.0
 11
81.47130469976495
 21
64.72122417122597
 31
0.0
  0
LINE
  5
63A
330
1F
100
AcDbEntity
  8
0
 60
     1
100
AcDbLine
 10
81.64808122984023
 20
64.64800104509035
 30
0.0
 11
81.712794227554
 21
64.65652017893912
 31
0.0
  0
LINE
  5
63C
330
1F
100
AcDbEntity
  8
0
 60
     1
100
AcDbLine
 10
81.89808989147802
 20
64.89800970672814
 30
0.0
 11
81.88957075762926
 21
64.96271369901499
 31
0.0
  0
LINE
  5
645
330
1F
100
AcDbEntity
  8
0
 60
     1
100
AcDbLine
 10
81.712794227554
 20
47.58948464517702
 30
0.0
 11
81.40660971290502
 21
47.28329112510114
 31
0.0
  0
LINE
  5
649
330
1F
100
AcDbEntity
  8
0
 60
     1
100
AcDbLine
 10
81.64808122984023
 20
47.09800446660401
 30
0.0
 11
81.47130469976495
 21
47.17122309002617
 31
0.0
  0
LINE
  5
64F
330
1F
100
AcDbEntity
  8
0
 60
     1
100
AcDbLine
 10
81.712794227554
 20
47.10652360045277
 30
0.0
 11
81.89808989147802
 21
47.34799511738799
 31
0.0
  0
LINE
  5
654
330
1F
100
AcDbEntity
  8
0
 60
     1
100
AcDbLine
 10
81.88957075762926
 20
47.41271712052864
 30
0.0
 11
81.712794227554
 21
47.58948464517702
 31
0.0
  0
LINE
  5
657
330
1F
100
AcDbEntity
  8
0
 60
     1
100
AcDbLine
 10
81.40660971290502
 20
47.28329112510114
 30
0.0
 11
81.47130469976495
 21
47.17122309002617
 31
0.0
  0
LINE
  5
659
330
1F
100
AcDbEntity
  8
0
 60
     1
100
AcDbLine
 10
81.64808122984023
 20
47.09800446660401
 30
0.0
 11
81.712794227554
 21
47.10652360045277
 31
0.0
  0
LINE
  5
65B
330
1F
100
AcDbEntity
  8
0
 60
     1
100
AcDbLine
 10
81.89808989147802
 20
47.34799511738799
 30
0.0
 11
81.88957075762926
 21
47.41271712052864
 31
0.0
  0
LINE
  5
65E
330
1F
100
AcDbEntity
  8
0
 60
     1
100
AcDbLine
 10
9.548787344392735
 20
71.49982513018589
 30
0.0
 11
105.548790410778
 21
71.49980711933207
 31
0.0
  0
LINE
  5
80E
330
1F
100
AcDbEntity
  8
Default
 62
     7
440
 33554687
 48
0.5
370
    15
100
AcDbLine
 10
-16.11274268153092
 20
10.90477165651146
 30
0.0
 11
-5.446075384048427
 21
10.90477165651146
 31
0.0
  0
LINE
  5
80F
330
1F
100
AcDbEntity
  8
Default
 62
     7
440
 33554687
 48
0.5
370
    15
100
AcDbLine
 10
-5.446075384048427
 20
10.90477165651146
 30
0.0
 11
-5.446075384048427
 21
2.738104359028966
 31
0.0
  0
LINE
  5
810
330
1F
100
AcDbEntity
  8
Default
 62
     7
440
 33554687
 48
0.5
370
    15
100
AcDbLine
 10
-5.446075384048427
 20
2.738104359028966
 30
0.0
 11
-16.11274268153092
 21
2.738104359028966
 31
0.0
  0
LINE
  5
811
330
1F
100
AcDbEntity
  8
Default
 62
     7
440
 33554687
 48
0.5
370
    15
100
AcDbLine
 10
-16.11274268153092
 20
2.738104359028966
 30
0.0
 11
-16.11274268153092
 21
10.90477165651146
 31
0.0
  0
LINE
  5
812
330
1F
100
AcDbEntity
  8
Default
 62
     7
440
 33554687
 48
0.5
370
    15
100
AcDbLine
 10
-16.11274266662976
 20
3.988104359028966
 30
0.0
 11
-14.23774260702511
 21
3.988104359028966
 31
0.0
  0
LINE
  5
813
330
1F
100
AcDbEntity
  8
Default
 62
     7
440
 33554687
 48
0.5
370
    15
100
AcDbLine
 10
-14.23774260702511
 20
3.988104359028966
 30
0.0
 11
-14.23774260702511
 21
2.738104359028966
 31
0.0
  0
LINE
  5
814
330
1F
100
AcDbEntity
  8
Default
 62
     7
440
 33554687
 48
0.5
370
    15
100
AcDbLine
 10
-14.23774260702511
 20
2.738104359028966
 30
0.0
 11
-16.11274266662976
 21
2.738104359028966
 31
0.0
  0
LINE
  5
815
330
1F
100
AcDbEntity
  8
Default
 62
     7
440
 33554687
 48
0.5
370
    15
100
AcDbLine
 10
-16.11274266662976
 20
2.738104359028966
 30
0.0
 11
-16.11274266662976
 21
3.988104359028966
 31
0.0
  0
LINE
  5
816
330
1F
100
AcDbEntity
  8
Default
 62
     7
440
 33554687
 48
0.5
370
    15
100
AcDbLine
 10
-14.23774236860653
 20
3.988104359028966
 30
0.0
 11
-12.36274236860653
 21
3.988104359028966
 31
0.0
  0
LINE
  5
817
330
1F
100
AcDbEntity
  8
Default
 62
     7
440
 33554687
 48
0.5
370
    15
100
AcDbLine
 10
-12.36274236860653
 20
3.988104359028966
 30
0.0
 11
-12.36274236860653
 21
2.738104359028966
 31
0.0
  0
LINE
  5
818
330
1F
100
AcDbEntity
  8
Default
 62
     7
440
 33554687
 48
0.5
370
    15
100
AcDbLine
 10
-12.36274236860653
 20
2.738104359028966
 30
0.0
 11
-14.23774236860653
 21
2.738104359028966
 31
0.0
  0
LINE
  5
819
330
1F
100
AcDbEntity
  8
Default
 62
     7
440
 33554687
 48
0.5
370
    15
100
AcDbLine
 10
-14.23774236860653
 20
2.738104359028966
 30
0.0
 11
-14.23774236860653
 21
3.988104359028966
 31
0.0
  0
IMAGE
  5
81A
330
1F
100
AcDbEntity
  8
Images
160
               140
310
8C00000001000000840000000600000005000000C8132468B9992FC000841842A36708400000000000000000C8132468B9992FC000841802A3670D400000000000000000C8132456B9192DC000841802A3670D400000000000000000C8132456B9192DC000841842A36708400000000000000000C8132468B9992FC0008418
310
42A36708400000000000000000
100
AcDbRasterImage
 90
        0
 10
-15.80024266662976
 20
3.050604359028966
 30
0.0
 11
0.0021739139764205
 21
0.0
 31
0.0
 12
0.0
 22
0.0022977923645693
 32
0.0
 13
575.0
 23
272.0
340
B6
 70
    15
280
     0
281
    50
282
    50
283
     0
290
     0
360
81B
 71
     1
 91
        2
 14
-0.5
 24
-0.5
 14
574.5
 24
271.5
  0
LINE
  5
81C
330
1F
100
AcDbEntity
  8
Default
 62
     7
440
 33554687
 48
0.5
370
    15
100
AcDbLine
 10
-5.446079198745692
 20
3.988104359028966
 30
0.0
 11
-12.36274236860653
 21
3.988104359028966
 31
0.0
  0
LINE
  5
81D
330
1F
100
AcDbEntity
  8
Default
 62
     7
440
 33554687
 48
0.5
370
    15
100
AcDbLine
 10
-12.36274236860653
 20
3.988104359028966
 30
0.0
 11
-7.862741414932216
 21
3.988104359028966
 31
0.0
  0
LINE
  5
81E
330
1F
100
AcDbEntity
  8
Default
 62
     7
440
 33554687
 48
0.5
370
    15
100
AcDbLine
 10
-12.36274236860653
 20
3.988104359028966
 30
0.0
 11
-8.113024656204189
 21
3.988104359028966
 31
0.0
  0
LINE
  5
81F
330
1F
100
AcDbEntity
  8
Default
 62
     7
440
 33554687
 48
0.5
370
    15
100
AcDbLine
 10
-8.113024656204189
 20
3.988104359028966
 30
0.0
 11
-8.113024656204189
 21
2.738104359028966
 31
0.0
  0
LINE
  5
820
330
1F
100
AcDbEntity
  8
Default
 62
     7
440
 33554687
 48
0.5
370
    15
100
AcDbLine
 10
-8.113024656204189
 20
2.738104359028966
 30
0.0
 11
-8.113024656204189
 21
2.988104359028966
 31
0.0
  0
LINE
  5
821
330
1F
100
AcDbEntity
  8
Default
 62
     7
440
 33554687
 48
0.5
370
    15
100
AcDbLine
 10
-8.113024656204189
 20
2.988104359028966
 30
0.0
 11
-5.446079198745692
 21
2.988104359028966
 31
0.0
  0
LINE
  5
822
330
1F
100
AcDbEntity
  8
Default
 62
     7
440
 33554687
 48
0.5
370
    15
100
AcDbLine
 10
-12.36274236860653
 20
3.988104359028966
 30
0.0
 11
-11.11274236860653
 21
3.988104359028966
 31
0.0
  0
LINE
  5
823
330
1F
100
AcDbEntity
  8
Default
 62
     7
440
 33554687
 48
0.5
370
    15
100
AcDbLine
 10
-11.11274236860653
 20
3.988104359028966
 30
0.0
 11
-11.11274236860653
 21
3.738104835866124
 31
0.0
  0
LINE
  5
824
330
1F
100
AcDbEntity
  8
Default
 62
     7
440
 33554687
 48
0.5
370
    15
100
AcDbLine
 10
-11.11274236860653
 20
3.738104835866124
 30
0.0
 11
-12.36274236860653
 21
3.738104835866124
 31
0.0
  0
LINE
  5
825
330
1F
100
AcDbEntity
  8
Default
 62
     7
440
 33554687
 48
0.5
370
    15
100
AcDbLine
 10
-12.36274236860653
 20
3.738104835866124
 30
0.0
 11
-12.36274236860653
 21
3.988104359028966
 31
0.0
  0
LINE
  5
826
330
1F
100
AcDbEntity
  8
Default
 62
     7
440
 33554687
 48
0.5
370
    15
100
AcDbLine
 10
-8.113025609878505
 20
3.988104359028966
 30
0.0
 11
-7.045988027481044
 21
3.988104359028966
 31
0.0
  0
LINE
  5
827
330
1F
100
AcDbEntity
  8
Default
 62
     7
440
 33554687
 48
0.5
370
    15
100
AcDbLine
 10
-7.045988027481044
 20
3.988104359028966
 30
0.0
 11
-7.045988027481044
 21
3.738104835866124
 31
0.0
  0
LINE
  5
828
330
1F
100
AcDbEntity
  8
Default
 62
     7
440
 33554687
 48
0.5
370
    15
100
AcDbLine
 10
-7.045988027481044
 20
3.738104835866124
 30
0.0
 11
-8.113025609878505
 21
3.738104835866124
 31
0.0
  0
LINE
  5
829
330
1F
100
AcDbEntity
  8
Default
 62
     7
440
 33554687
 48
0.5
370
    15
100
AcDbLine
 10
-8.113025609878505
 20
3.738104835866124
 30
0.0
 11
-8.113025609878505
 21
3.988104359028966
 31
0.0
  0
TEXT
  5
82A
330
1F
100
AcDbEntity
  8
Default
 62
     7
100
AcDbText
 10
-12.30024236860653
 20
3.801079214471993
 30
0.0
 40
0.0942919030785561
  1
DESCRIPTION:
  7
RockwellBold
 11
-12.30024236860653
 21
3.769354835866124
 31
0.0
100
AcDbText
 73
     1
  0
TEXT
  5
82B
330
1F
100
AcDbEntity
  8
Default
 62
     7
100
AcDbText
 10
-8.050524656204189
 20
3.801079214471993
 30
0.0
 40
0.0942919030785561
  1
DRAWING #:
  7
RockwellBold
 11
-8.050524656204189
 21
3.769354835866124
 31
0.0
100
AcDbText
 73
     1
  0
TEXT
  5
82C
330
1F
100
AcDbEntity
  8
Default
 62
     7
100
AcDbText
 10
-8.066149656204189
 20
2.801078737634835
 30
0.0
 40
0.0942919030785561
  1
DATE:
  7
RockwellBold
 11
-8.066149656204189
 21
2.769354359028966
 31
0.0
100
AcDbText
 73
     1
  0
MTEXT
  5
82D
330
1F
100
AcDbEntity
  8
Default
 62
     7
100
AcDbMText
 10
-11.54107135954281
 20
3.209158436177403
 30
0.0
 40
0.1
 41
2.865828037261962
 46
1.427082538604736
 71
     7
 72
     1
  1
\fMontserrat|b0|i0|p0;\H0.833333x;\C7;\lRE-ROOFING DECK REPLACEMENT \P\fMontserrat|b0|i0|p0;\H1.000000x;\C7;\lFASTENING DETAIL\P
  7
Montserrat
 73
     1
 44
1.0
  0
MTEXT
  5
82E
330
1F
100
AcDbEntity
  8
Default
 62
     7
100
AcDbMText
 10
-6.753225747970546
 20
3.230712429402501
 30
0.0
 40
0.1
 41
1.104449272155761
 46
0.851142406463623
 71
     8
 72
     1
  1
\fMontserrat|b0|i0|p0;\H0.833333x;\lF-RR-1\P\P
  7
Montserrat
 73
     1
 44
1.0
  0
TEXT
  5
82F
330
1F
100
AcDbEntity
  8
Default
 62
     7
100
AcDbText
 10
-7.104216508509805
 20
2.797132137634586
 30
0.0
 40
0.0833333358168602
  1
11/01/2020
  7
Montserrat
 72
     1
 11
-6.73516887846371
 21
2.769354359028966
 31
0.0
100
AcDbText
 73
     1
  0
MTEXT
  5
830
330
1F
100
AcDbEntity
  8
Default
 62
     7
100
AcDbMText
 10
-16.01899266662975
 20
8.575424448369176
 30
0.0
 40
0.1
 41
3.557552874088287
 46
3.634180545806884
 71
     7
 72
     1
  3
\P\fMontserrat|b0|i0|p0;\H0.666667x;\C7;\l^I\LGENERAL NOTES:\P\fMontserrat|b0|i0|p0;\H1.000000x;\C7;\l1.REFER TO APPLICABLE FORTIFIED HOME \P\fMontserrat|b0|i0|p0;\H1.000000x;\C7;\lSTANDARDS FOR ADDITIONAL INFORMATION.\P\fMontserrat|b0|i0|p0;\H1.00000
  3
0x;\C7;\l2.WHEN REPLACING AN ENTIRE DAMAGED SHEET \P\fMontserrat|b0|i0|p0;\H1.000000x;\C7;\lWITH A DIMENSION OF LESS THAN 24" IN ANY \P\fMontserrat|b0|i0|p0;\H1.000000x;\C7;\lDIRECTION, PROVIDE 2X4 BLOCKING ALONG ALL \P\fMontserrat|b0|i0|p0;\H1.00000
  3
0x;\C7;\lUNSUPPORTED EDGES, AND FASTEN SHEATHING IN \P\fMontserrat|b0|i0|p0;\H1.000000x;\C7;\lACCORDANCE WITH F-RR-3 AND F-RR-4.\P\fMontserrat|b0|i0|p0;\H1.000000x;\C7;\l3.FORTIFIED HOME STANDARDS ARE TO BE APPLIED \P\fMontserrat|b0|i0|p0;\H1.000000x
  3
;\C7;\lIN CONJUNCTION WITH FEDERAL, STATE, AND \P\fMontserrat|b0|i0|p0;\H1.000000x;\C7;\lLOCAL CODES, ORDINANCES AND REGULATIONS IN \P\fMontserrat|b0|i0|p0;\H1.000000x;\C7;\lADDITION TO THE STRUCTURAL DESIGN WHICH IS \P\fMontserrat|b0|i0|p0;\H1.00000
  1
0x;\C7;\lBY OTHERS. IN CASE OF A CONFLICT BETWEEN \P\fMontserrat|b0|i0|p0;\H1.000000x;\C7;\lPROVISIONS, USE WHICHEVER IS MORE STRINGENT. \P\P
  7
Montserrat
 73
     1
 44
1.0
  0
INSERT
  5
831
330
1F
100
AcDbEntity
  8
0
100
AcDbBlockReference
  2
ANNO_0
 10
-16.27940935316464
 20
2.571438328145177
 30
0.0
  0
LEADER
  5
832
330
1F
100
AcDbEntity
  8
Default
 48
0.5
100
AcDbLeader
  3
Standard
 76
     3
 10
-10.88985628309628
 20
6.91456128728214
 30
0.0
 10
-11.1062011164703
 20
4.373521343587071
 30
0.0
 10
-11.31462854566952
 20
4.373521343587071
 30
0.0
212
4.964780807495117
222
1.802083015441894
232
0.0
1001
ACAD
1000
DSTYLE
1002
{
1070
    41
1040
0.1874999925494194
1070
   341
1005
0
1070
   176
1070
     7
1070
   371
1070
    15
1002
}
  0
INSERT
  5
833
330
1F
100
AcDbEntity
  8
0
100
AcDbBlockReference
  2
ANNO_1
 10
-16.27940935316464
 20
2.571438328145177
 30
0.0
  0
LEADER
  5
834
330
1F
100
AcDbEntity
  8
Default
 48
0.5
100
AcDbLeader
  3
Standard
 76
     3
 10
-9.95272726240536
 20
6.367216125844151
 30
0.0
 10
-9.621300165084804
 20
4.560199276326329
 30
0.0
 10
-9.527573530105556
 20
4.560199276326329
 30
0.0
212
6.751835823059082
222
1.988760948181152
232
0.0
1001
ACAD
1000
DSTYLE
1002
{
1070
    41
1040
0.1874999925494194
1070
   341
1005
0
1070
   176
1070
     7
1070
   371
1070
    15
1002
}
  0
INSERT
  5
835
330
1F
100
AcDbEntity
  8
0
100
AcDbBlockReference
  2
ANNO_2
 10
-16.27940935316464
 20
2.571438328145177
 30
0.0
  0
LEADER
  5
836
330
1F
100
AcDbEntity
  8
Default
 48
0.5
100
AcDbLeader
  3
Standard
 76
     3
 10
-10.68193239393612
 20
10.02456332814517
 30
0.0
 10
-10.55478042784115
 20
10.77039693367305
 30
0.0
 10
-10.46153158369442
 20
10.77039693367305
 30
0.0
212
5.817877769470214
222
8.198958605527877
232
0.0
1001
ACAD
1000
DSTYLE
1002
{
1070
    41
1040
0.1874999925494194
1070
   341
1005
0
1070
   176
1070
     7
1070
   371
1070
    15
1002
}
  0
LINE
  5
837
330
1F
100
AcDbEntity
  8
Default
 62
     7
440
 33554687
370
    35
100
AcDbLine
 10
-9.795034353164638
 20
4.510338798878819
 30
0.0
 11
-9.539726201919521
 21
4.510338798878819
 31
0.0
  0
LINE
  5
838
330
1F
100
AcDbEntity
  8
Default
 62
     7
440
 33554687
370
    35
100
AcDbLine
 10
-9.539726201919521
 20
4.510338798878819
 30
0.0
 11
-9.539726201919521
 21
4.238104835866124
 31
0.0
  0
LINE
  5
839
330
1F
100
AcDbEntity
  8
Default
 62
     7
440
 33554687
370
    35
100
AcDbLine
 10
-9.539726201919521
 20
4.238104835866124
 30
0.0
 11
-9.795034353164638
 21
4.238104835866124
 31
0.0
  0
LINE
  5
83A
330
1F
100
AcDbEntity
  8
Default
 62
     7
440
 33554687
370
    35
100
AcDbLine
 10
-9.795034353164638
 20
4.238104835866124
 30
0.0
 11
-9.795034353164638
 21
4.510338798878819
 31
0.0
  0
INSERT
  5
83B
330
1F
100
AcDbEntity
  8
0
100
AcDbBlockReference
  2
ANNO_3
 10
-16.27940935316464
 20
2.571438328145177
 30
0.0
  0
LEADER
  5
83C
330
1F
100
AcDbEntity
  8
Default
 48
0.5
100
AcDbLeader
  3
Standard
 76
     3
 10
-12.27314132872006
 20
6.156128422139317
 30
0.0
 10
-12.55259126844784
 20
6.930331245778234
 30
0.0
 10
-12.75259131613156
 20
6.930331245778234
 30
0.0
212
3.526818037033081
222
4.358892917633056
232
0.0
1001
ACAD
1000
DSTYLE
1002
{
1070
    41
1040
0.1874999925494194
1070
   341
1005
0
1070
   176
1070
     7
1070
   371
1070
    15
1002
}
  0
SPLINE
  5
83D
330
1F
100
AcDbEntity
  8
Default
  6
DASHED
 62
     7
440
 33554687
 48
0.25
370
    35
100
AcDbSpline
210
0.0
220
0.0
230
1.0
 70
    12
 71
     3
 72
     8
 73
     4
 74
     0
 42
0.000000001
 43
0.0000000001
 40
0.0
 40
0.0
 40
0.0
 40
0.0
 40
1.0
 40
1.0
 40
1.0
 40
1.0
 10
-10.92799944105526
 20
7.887189403889806
 30
0.0
 41
0.25
 10
-10.93269437971493
 20
7.948217407582433
 30
0.0
 41
0.25
 10
-10.97753042402645
 20
7.99240233075443
 30
0.0
 41
0.25
 10
-10.94071335020443
 20
8.052472368596227
 30
0.0
 41
0.25
  0
SPLINE
  5
83E
330
1F
100
AcDbEntity
  8
Default
  6
DASHED
 62
     7
440
 33554687
 48
0.25
370
    35
100
AcDbSpline
210
0.0
220
0.0
230
1.0
 70
    12
 71
     3
 72
     8
 73
     4
 74
     0
 42
0.000000001
 43
0.0000000001
 40
0.0
 40
0.0
 40
0.0
 40
0.0
 40
1.0
 40
1.0
 40
1.0
 40
1.0
 10
-10.94071335020443
 20
8.052472368596227
 30
0.0
 41
0.25
 10
-10.92380327406307
 20
8.080062404988439
 30
0.0
 41
0.25
 10
-10.85782140913387
 20
8.094378248570592
 30
0.0
 41
0.25
 10
-10.80721515837093
 20
8.084257379887731
 30
0.0
 41
0.25
  0
SPLINE
  5
83F
330
1F
100
AcDbEntity
  8
Default
  6
DASHED
 62
     7
440
 33554687
 48
0.25
370
    35
100
AcDbSpline
210
0.0
220
0.0
230
1.0
 70
    12
 71
     3
 72
     8
 73
     4
 74
     0
 42
0.000000001
 43
0.0000000001
 40
0.0
 40
0.0
 40
0.0
 40
0.0
 40
1.0
 40
1.0
 40
1.0
 40
1.0
 10
-10.80721515837093
 20
8.084257379887731
 30
0.0
 41
0.25
 10
-10.7745212954559
 20
8.077719227193028
 30
0.0
 41
0.25
 10
-10.77294153395077
 20
8.004772440312535
 30
0.0
 41
0.25
 10
-10.75000137510677
 20
8.014330402730138
 30
0.0
 41
0.25
  0
SPLINE
  5
840
330
1F
100
AcDbEntity
  8
Default
  6
DASHED
 62
     7
440
 33554687
 48
0.25
370
    35
100
AcDbSpline
210
0.0
220
0.0
230
1.0
 70
    12
 71
     3
 72
     8
 73
     4
 74
     0
 42
0.000000001
 43
0.0000000001
 40
0.0
 40
0.0
 40
0.0
 40
0.0
 40
1.0
 40
1.0
 40
1.0
 40
1.0
 10
-10.75000137510677
 20
8.014330402730138
 30
0.0
 41
0.25
 10
-10.73728841963192
 20
8.019627348302037
 30
0.0
 41
0.25
 10
-10.7536415499725
 20
8.084248319981725
 30
0.0
 41
0.25
 10
-10.73093027296444
 20
8.116043344853551
 30
0.0
 41
0.25
  0
SPLINE
  5
841
330
1F
100
AcDbEntity
  8
Default
  6
DASHED
 62
     7
440
 33554687
 48
0.25
370
    35
100
AcDbSpline
210
0.0
220
0.0
230
1.0
 70
    12
 71
     3
 72
     8
 73
     4
 74
     0
 42
0.000000001
 43
0.0000000001
 40
0.0
 40
0.0
 40
0.0
 40
0.0
 40
1.0
 40
1.0
 40
1.0
 40
1.0
 10
-10.73093027296444
 20
8.116043344853551
 30
0.0
 41
0.25
 10
-10.71567434492489
 20
8.137402311680943
 30
0.0
 41
0.25
 10
-10.6813702029266
 20
8.164654270527989
 30
0.0
 41
0.25
 10
-10.65464634123226
 20
8.147828356145055
 30
0.0
 41
0.25
  0
SPLINE
  5
842
330
1F
100
AcDbEntity
  8
Default
  6
DASHED
 62
     7
440
 33554687
 48
0.25
370
    35
100
AcDbSpline
210
0.0
220
0.0
230
1.0
 70
    12
 71
     3
 72
     8
 73
     4
 74
     0
 42
0.000000001
 43
0.0000000001
 40
0.0
 40
0.0
 40
0.0
 40
0.0
 40
1.0
 40
1.0
 40
1.0
 40
1.0
 10
-10.65464634123226
 20
8.147828356145055
 30
0.0
 41
0.25
 10
-10.6088752192535
 20
8.119009271977574
 30
0.0
 41
0.25
 10
-10.59396547499081
 20
8.056517378209264
 30
0.0
 41
0.25
 10
-10.55929035368343
 20
8.007973209736974
 30
0.0
 41
0.25
  0
SPLINE
  5
843
330
1F
100
AcDbEntity
  8
Default
  6
DASHED
 62
     7
440
 33554687
 48
0.25
370
    35
100
AcDbSpline
210
0.0
220
0.0
230
1.0
 70
    12
 71
     3
 72
     8
 73
     4
 74
     0
 42
0.000000001
 43
0.0000000001
 40
0.0
 40
0.0
 40
0.0
 40
0.0
 40
1.0
 40
1.0
 40
1.0
 40
1.0
 10
-10.55929035368343
 20
8.007973209736974
 30
0.0
 41
0.25
 10
-10.55929035368343
 20
8.007973209736974
 30
0.0
 41
0.25
 10
-10.55994457426449
 20
8.013240352986485
 30
0.0
 41
0.25
 10
-10.55929035368343
 20
8.014330402730138
 30
0.0
 41
0.25
  0
SPLINE
  5
844
330
1F
100
AcDbEntity
  8
Default
  6
DASHED
 62
     7
440
 33554687
 48
0.25
370
    35
100
AcDbSpline
210
0.0
220
0.0
230
1.0
 70
    12
 71
     3
 72
     8
 73
     4
 74
     0
 42
0.000000001
 43
0.0000000001
 40
0.0
 40
0.0
 40
0.0
 40
0.0
 40
1.0
 40
1.0
 40
1.0
 40
1.0
 10
-10.55929035368343
 20
8.014330402730138
 30
0.0
 41
0.25
 10
-10.54212612333675
 20
8.042936340687901
 30
0.0
 41
0.25
 10
-10.53679746809383
 20
8.084883228657872
 30
0.0
 41
0.25
 10
-10.50207752409359
 20
8.103328243611485
 30
0.0
 41
0.25
  0
SPLINE
  5
845
330
1F
100
AcDbEntity
  8
Default
  6
DASHED
 62
     7
440
 33554687
 48
0.25
370
    35
100
AcDbSpline
210
0.0
220
0.0
230
1.0
 70
    12
 71
     3
 72
     8
 73
     4
 74
     0
 42
0.000000001
 43
0.0000000001
 40
0.0
 40
0.0
 40
0.0
 40
0.0
 40
1.0
 40
1.0
 40
1.0
 40
1.0
 10
-10.50207752409359
 20
8.103328243611485
 30
0.0
 41
0.25
 10
-10.4568714541473
 20
8.127344385502965
 30
0.0
 41
0.25
 10
-10.40103239241024
 20
8.150083319066197
 30
0.0
 41
0.25
 10
-10.35586542311093
 20
8.122399345753819
 30
0.0
 41
0.25
  0
SPLINE
  5
846
330
1F
100
AcDbEntity
  8
Default
  6
DASHED
 62
     7
440
 33554687
 48
0.25
370
    35
100
AcDbSpline
210
0.0
220
0.0
230
1.0
 70
    12
 71
     3
 72
     8
 73
     4
 74
     0
 42
0.000000001
 43
0.0000000001
 40
0.0
 40
0.0
 40
0.0
 40
0.0
 40
1.0
 40
1.0
 40
1.0
 40
1.0
 10
-10.35586542311093
 20
8.122399345753819
 30
0.0
 41
0.25
 10
-10.31082147779843
 20
8.094792381642491
 30
0.0
 41
0.25
 10
-10.30863327207943
 20
8.040543333409459
 30
0.0
 41
0.25
 10
-10.30500835600277
 20
7.982545391438634
 30
0.0
 41
0.25
  0
SPLINE
  5
847
330
1F
100
AcDbEntity
  8
Default
  6
DASHED
 62
     7
440
 33554687
 48
0.25
370
    35
100
AcDbSpline
210
0.0
220
0.0
230
1.0
 70
    12
 71
     3
 72
     8
 73
     4
 74
     0
 42
0.000000001
 43
0.0000000001
 40
0.0
 40
0.0
 40
0.0
 40
0.0
 40
1.0
 40
1.0
 40
1.0
 40
1.0
 10
-10.30500835600277
 20
7.982545391438634
 30
0.0
 41
0.25
 10
-10.30373758497616
 20
7.962202326176793
 30
0.0
 41
0.25
 10
-10.34448141279598
 20
7.940255419133336
 30
0.0
 41
0.25
 10
-10.34315151396175
 20
7.91897441518131
 30
0.0
 41
0.25
  0
SPLINE
  5
848
330
1F
100
AcDbEntity
  8
Default
  6
DASHED
 62
     7
440
 33554687
 48
0.25
370
    35
100
AcDbSpline
210
0.0
220
0.0
230
1.0
 70
    12
 71
     3
 72
     8
 73
     4
 74
     0
 42
0.000000001
 43
0.0000000001
 40
0.0
 40
0.0
 40
0.0
 40
0.0
 40
1.0
 40
1.0
 40
1.0
 40
1.0
 10
-10.34315151396175
 20
7.91897441518131
 30
0.0
 41
0.25
 10
-10.3420614642181
 20
7.901538387654454
 30
0.0
 41
0.25
 10
-10.3135723513641
 20
7.909679428456456
 30
0.0
 41
0.25
 10
-10.29865116300961
 20
7.880832210896642
 30
0.0
 41
0.25
  0
SPLINE
  5
849
330
1F
100
AcDbEntity
  8
Default
  6
DASHED
 62
     7
440
 33554687
 48
0.25
370
    35
100
AcDbSpline
210
0.0
220
0.0
230
1.0
 70
    12
 71
     3
 72
     8
 73
     4
 74
     0
 42
0.000000001
 43
0.0000000001
 40
0.0
 40
0.0
 40
0.0
 40
0.0
 40
1.0
 40
1.0
 40
1.0
 40
1.0
 10
-10.29865116300961
 20
7.880832210896642
 30
0.0
 41
0.25
 10
-10.27958053770443
 20
7.843961254475743
 30
0.0
 41
0.25
 10
-10.25430053892513
 20
7.791535393117101
 30
0.0
 41
0.25
 10
-10.24779552641293
 20
7.734620348332555
 30
0.0
 41
0.25
  0
SPLINE
  5
84A
330
1F
100
AcDbEntity
  8
Default
  6
DASHED
 62
     7
440
 33554687
 48
0.25
370
    35
100
AcDbSpline
210
0.0
220
0.0
230
1.0
 70
    12
 71
     3
 72
     8
 73
     4
 74
     0
 42
0.000000001
 43
0.0000000001
 40
0.0
 40
0.0
 40
0.0
 40
0.0
 40
1.0
 40
1.0
 40
1.0
 40
1.0
 10
-10.24779552641293
 20
7.734620348332555
 30
0.0
 41
0.25
 10
-10.24398130598446
 20
7.701245323537023
 30
0.0
 41
0.25
 10
-10.2445182246246
 20
7.683452383397252
 30
0.0
 41
0.25
 10
-10.27322334471127
 20
7.658335224507482
 30
0.0
 41
0.25
  0
SPLINE
  5
84B
330
1F
100
AcDbEntity
  8
Default
  6
DASHED
 62
     7
440
 33554687
 48
0.25
370
    35
100
AcDbSpline
210
0.0
220
0.0
230
1.0
 70
    12
 71
     3
 72
     8
 73
     4
 74
     0
 42
0.000000001
 43
0.0000000001
 40
0.0
 40
0.0
 40
0.0
 40
0.0
 40
1.0
 40
1.0
 40
1.0
 40
1.0
 10
-10.27322334471127
 20
7.658335224507482
 30
0.0
 41
0.25
 10
-10.30373758497616
 20
7.631636396763951
 30
0.0
 41
0.25
 10
-10.4003643435516
 20
7.643890396474034
 30
0.0
 41
0.25
 10
-10.4003643435516
 20
7.601122394917638
 30
0.0
 41
0.25
  0
SPLINE
  5
84C
330
1F
100
AcDbEntity
  8
Default
  6
DASHED
 62
     7
440
 33554687
 48
0.25
370
    35
100
AcDbSpline
210
0.0
220
0.0
230
1.0
 70
    12
 71
     3
 72
     8
 73
     4
 74
     0
 42
0.000000001
 43
0.0000000001
 40
0.0
 40
0.0
 40
0.0
 40
0.0
 40
1.0
 40
1.0
 40
1.0
 40
1.0
 10
-10.4003643435516
 20
7.601122394917638
 30
0.0
 41
0.25
 10
-10.4003643435516
 20
7.570608393071324
 30
0.0
 41
0.25
 10
-10.30270713987728
 20
7.558033243535192
 30
0.0
 41
0.25
 10
-10.27322334471127
 20
7.50576640736881
 30
0.0
 41
0.25
  0
SPLINE
  5
84D
330
1F
100
AcDbEntity
  8
Default
  6
DASHED
 62
     7
440
 33554687
 48
0.25
370
    35
100
AcDbSpline
210
0.0
220
0.0
230
1.0
 70
    12
 71
     3
 72
     8
 73
     4
 74
     0
 42
0.000000001
 43
0.0000000001
 40
0.0
 40
0.0
 40
0.0
 40
0.0
 40
1.0
 40
1.0
 40
1.0
 40
1.0
 10
-10.27322334471127
 20
7.50576640736881
 30
0.0
 41
0.25
 10
-10.24525255384823
 20
7.456181303380162
 30
0.0
 41
0.25
 10
-10.22589534941097
 20
7.395336405156285
 30
0.0
 41
0.25
 10
-10.2605094355621
 20
7.353197351811559
 30
0.0
 41
0.25
  0
SPLINE
  5
84E
330
1F
100
AcDbEntity
  8
Default
  6
DASHED
 62
     7
440
 33554687
 48
0.25
370
    35
100
AcDbSpline
210
0.0
220
0.0
230
1.0
 70
    12
 71
     3
 72
     8
 73
     4
 74
     0
 42
0.000000001
 43
0.0000000001
 40
0.0
 40
0.0
 40
0.0
 40
0.0
 40
1.0
 40
1.0
 40
1.0
 40
1.0
 10
-10.2605094355621
 20
7.353197351811559
 30
0.0
 41
0.25
 10
-10.28750223341366
 20
7.320336357472569
 30
0.0
 41
0.25
 10
-10.39534038725277
 20
7.371944443104894
 30
0.0
 41
0.25
 10
-10.41943544569393
 20
7.32776929509464
 30
0.0
 41
0.25
  0
SPLINE
  5
84F
330
1F
100
AcDbEntity
  8
Default
  6
DASHED
 62
     7
440
 33554687
 48
0.25
370
    35
100
AcDbSpline
210
0.0
220
0.0
230
1.0
 70
    12
 71
     3
 72
     8
 73
     4
 74
     0
 42
0.000000001
 43
0.0000000001
 40
0.0
 40
0.0
 40
0.0
 40
0.0
 40
1.0
 40
1.0
 40
1.0
 40
1.0
 10
-10.41943544569393
 20
7.32776929509464
 30
0.0
 41
0.25
 10
-10.43053144636532
 20
7.307426229832799
 30
0.0
 41
0.25
 10
-10.35711616697689
 20
7.263551250813634
 30
0.0
 41
0.25
 10
-10.33679336729427
 20
7.213342443822057
 30
0.0
 41
0.25
  0
SPLINE
  5
850
330
1F
100
AcDbEntity
  8
Default
  6
DASHED
 62
     7
440
 33554687
 48
0.25
370
    35
100
AcDbSpline
210
0.0
220
0.0
230
1.0
 70
    12
 71
     3
 72
     8
 73
     4
 74
     0
 42
0.000000001
 43
0.0000000001
 40
0.0
 40
0.0
 40
0.0
 40
0.0
 40
1.0
 40
1.0
 40
1.0
 40
1.0
 10
-10.33679336729427
 20
7.213342443822057
 30
0.0
 41
0.25
 10
-10.31517929258724
 20
7.159943357823522
 30
0.0
 41
0.25
 10
-10.28355735960384
 20
7.111176267979772
 30
0.0
 41
0.25
 10
-10.31136650267025
 20
7.060773388264806
 30
0.0
 41
0.25
  0
SPLINE
  5
851
330
1F
100
AcDbEntity
  8
Default
  6
DASHED
 62
     7
440
 33554687
 48
0.25
370
    35
100
AcDbSpline
210
0.0
220
0.0
230
1.0
 70
    12
 71
     3
 72
     8
 73
     4
 74
     0
 42
0.000000001
 43
0.0000000001
 40
0.0
 40
0.0
 40
0.0
 40
0.0
 40
1.0
 40
1.0
 40
1.0
 40
1.0
 10
-10.31136650267025
 20
7.060773388264806
 30
0.0
 41
0.25
 10
-10.32764047804257
 20
7.03127624165836
 30
0.0
 41
0.25
 10
-10.41488022032162
 20
7.066116348622472
 30
0.0
 41
0.25
 10
-10.43850654783627
 20
7.028988376973302
 30
0.0
 41
0.25
  0
SPLINE
  5
852
330
1F
100
AcDbEntity
  8
Default
  6
DASHED
 62
     7
440
 33554687
 48
0.25
370
    35
100
AcDbSpline
210
0.0
220
0.0
230
1.0
 70
    12
 71
     3
 72
     8
 73
     4
 74
     0
 42
0.000000001
 43
0.0000000001
 40
0.0
 40
0.0
 40
0.0
 40
0.0
 40
1.0
 40
1.0
 40
1.0
 40
1.0
 10
-10.43850654783627
 20
7.028988376973302
 30
0.0
 41
0.25
 10
-10.45185655775448
 20
7.008009449360997
 30
0.0
 41
0.25
 10
-10.4003643435516
 20
6.960740105031163
 30
0.0
 41
0.25
 10
-10.4003643435516
 20
6.920918480275304
 30
0.0
 41
0.25
  0
SPLINE
  5
853
330
1F
100
AcDbEntity
  8
Default
  6
DASHED
 62
     7
440
 33554687
 48
0.25
370
    35
100
AcDbSpline
210
0.0
220
0.0
230
1.0
 70
    12
 71
     3
 72
     8
 73
     4
 74
     0
 42
0.000000001
 43
0.0000000001
 40
0.0
 40
0.0
 40
0.0
 40
0.0
 40
1.0
 40
1.0
 40
1.0
 40
1.0
 10
-10.4003643435516
 20
6.920918480275304
 30
0.0
 41
0.25
 10
-10.4003643435516
 20
6.878538147328526
 30
0.0
 41
0.25
 10
-10.39469236555477
 20
6.851758495686681
 30
0.0
 41
0.25
 10
-10.43850654783627
 20
6.838277355549962
 30
0.0
 41
0.25
  0
SPLINE
  5
854
330
1F
100
AcDbEntity
  8
Default
  6
DASHED
 62
     7
440
 33554687
 48
0.25
370
    35
100
AcDbSpline
210
0.0
220
0.0
230
1.0
 70
    12
 71
     3
 72
     8
 73
     4
 74
     0
 42
0.000000001
 43
0.0000000001
 40
0.0
 40
0.0
 40
0.0
 40
0.0
 40
1.0
 40
1.0
 40
1.0
 40
1.0
 10
-10.43850654783627
 20
6.838277355549962
 30
0.0
 41
0.25
 10
-10.45503420057674
 20
6.833191410420567
 30
0.0
 41
0.25
 10
-10.52923435392758
 20
6.854283348439366
 30
0.0
 41
0.25
 10
-10.5656475466766
 20
6.870062366841466
 30
0.0
 41
0.25
  0
SPLINE
  5
855
330
1F
100
AcDbEntity
  8
Default
  6
DASHED
 62
     7
440
 33554687
 48
0.25
370
    35
100
AcDbSpline
210
0.0
220
0.0
230
1.0
 70
    12
 71
     3
 72
     8
 73
     4
 74
     0
 42
0.000000001
 43
0.0000000001
 40
0.0
 40
0.0
 40
0.0
 40
0.0
 40
1.0
 40
1.0
 40
1.0
 40
1.0
 10
-10.5656475466766
 20
6.870062366841466
 30
0.0
 41
0.25
 10
-10.60378927412411
 20
6.886590496419103
 30
0.0
 41
0.25
 10
-10.60729545774838
 20
6.928748146412999
 30
0.0
 41
0.25
 10
-10.62921852293392
 20
6.920918480275304
 30
0.0
 41
0.25
  0
SPLINE
  5
856
330
1F
100
AcDbEntity
  8
Default
  6
DASHED
 62
     7
440
 33554687
 48
0.25
370
    35
100
AcDbSpline
210
0.0
220
0.0
230
1.0
 70
    12
 71
     3
 72
     8
 73
     4
 74
     0
 42
0.000000001
 43
0.0000000001
 40
0.0
 40
0.0
 40
0.0
 40
0.0
 40
1.0
 40
1.0
 40
1.0
 40
1.0
 10
-10.62921852293392
 20
6.920918480275304
 30
0.0
 41
0.25
 10
-10.64108413877865
 20
6.916680351613194
 30
0.0
 41
0.25
 10
-10.6336783808746
 20
6.859245315907628
 30
0.0
 41
0.25
 10
-10.65464634123226
 20
6.838277355549962
 30
0.0
 41
0.25
  0
SPLINE
  5
857
330
1F
100
AcDbEntity
  8
Default
  6
DASHED
 62
     7
440
 33554687
 48
0.25
370
    35
100
AcDbSpline
210
0.0
220
0.0
230
1.0
 70
    12
 71
     3
 72
     8
 73
     4
 74
     0
 42
0.000000001
 43
0.0000000001
 40
0.0
 40
0.0
 40
0.0
 40
0.0
 40
1.0
 40
1.0
 40
1.0
 40
1.0
 10
-10.65464634123226
 20
6.838277355549962
 30
0.0
 41
0.25
 10
-10.66354650679012
 20
6.829377189992101
 30
0.0
 41
0.25
 10
-10.6887902659454
 20
6.822376266835362
 30
0.0
 41
0.25
 10
-10.71821636381527
 20
6.831919208882482
 30
0.0
 41
0.25
  0
SPLINE
  5
858
330
1F
100
AcDbEntity
  8
Default
  6
DASHED
 62
     7
440
 33554687
 48
0.25
370
    35
100
AcDbSpline
210
0.0
220
0.0
230
1.0
 70
    12
 71
     3
 72
     8
 73
     4
 74
     0
 42
0.000000001
 43
0.0000000001
 40
0.0
 40
0.0
 40
0.0
 40
0.0
 40
1.0
 40
1.0
 40
1.0
 40
1.0
 10
-10.71821636381527
 20
6.831919208882482
 30
0.0
 41
0.25
 10
-10.77466720762631
 20
6.850228325246007
 30
0.0
 41
0.25
 10
-10.8373383921661
 20
6.870795265553624
 30
0.0
 41
0.25
 10
-10.88985628309628
 20
6.91456128728214
 30
0.0
 41
0.25
  0
SPLINE
  5
859
330
1F
100
AcDbEntity
  8
Default
  6
DASHED
 62
     7
440
 33554687
 48
0.25
370
    35
100
AcDbSpline
210
0.0
220
0.0
230
1.0
 70
    12
 71
     3
 72
     8
 73
     4
 74
     0
 42
0.000000001
 43
0.0000000001
 40
0.0
 40
0.0
 40
0.0
 40
0.0
 40
1.0
 40
1.0
 40
1.0
 40
1.0
 10
-10.88985628309628
 20
6.91456128728214
 30
0.0
 41
0.25
 10
-10.94071335020443
 20
6.956941143391759
 30
0.0
 41
0.25
 10
-10.90563053312679
 20
7.004213348744542
 30
0.0
 41
0.25
 10
-10.94707054319759
 20
7.022631183980138
 30
0.0
 41
0.25
  0
SPLINE
  5
85A
330
1F
100
AcDbEntity
  8
Default
  6
DASHED
 62
     7
440
 33554687
 48
0.25
370
    35
100
AcDbSpline
210
0.0
220
0.0
230
1.0
 70
    12
 71
     3
 72
     8
 73
     4
 74
     0
 42
0.000000001
 43
0.0000000001
 40
0.0
 40
0.0
 40
0.0
 40
0.0
 40
1.0
 40
1.0
 40
1.0
 40
1.0
 10
-10.94707054319759
 20
7.022631183980138
 30
0.0
 41
0.25
 10
-10.96995634260555
 20
7.03280212056461
 30
0.0
 41
0.25
 10
-11.01470750990292
 20
6.969348446248204
 30
0.0
 41
0.25
 10
-11.0614971560516
 20
6.990845219014317
 30
0.0
 41
0.25
  0
SPLINE
  5
85B
330
1F
100
AcDbEntity
  8
Default
  6
DASHED
 62
     7
440
 33554687
 48
0.25
370
    35
100
AcDbSpline
210
0.0
220
0.0
230
1.0
 70
    12
 71
     3
 72
     8
 73
     4
 74
     0
 42
0.000000001
 43
0.0000000001
 40
0.0
 40
0.0
 40
0.0
 40
0.0
 40
1.0
 40
1.0
 40
1.0
 40
1.0
 10
-11.0614971560516
 20
6.990845219014317
 30
0.0
 41
0.25
 10
-11.10181945982357
 20
7.009371296284825
 30
0.0
 41
0.25
 10
-11.17388147535702
 20
7.063500419972569
 30
0.0
 41
0.25
 10
-11.18228143873593
 20
7.130701319096715
 30
0.0
 41
0.25
  0
SPLINE
  5
85C
330
1F
100
AcDbEntity
  8
Default
  6
DASHED
 62
     7
440
 33554687
 48
0.25
370
    35
100
AcDbSpline
210
0.0
220
0.0
230
1.0
 70
    12
 71
     3
 72
     8
 73
     4
 74
     0
 42
0.000000001
 43
0.0000000001
 40
0.0
 40
0.0
 40
0.0
 40
0.0
 40
1.0
 40
1.0
 40
1.0
 40
1.0
 10
-11.18228143873593
 20
7.130701319096715
 30
0.0
 41
0.25
 10
-11.19118017378231
 20
7.201899305699498
 30
0.0
 41
0.25
 10
-11.15480941954037
 20
7.284298435567052
 30
0.0
 41
0.25
 10
-11.10599655332943
 20
7.346840397236974
 30
0.0
 41
0.25
  0
SPLINE
  5
85D
330
1F
100
AcDbEntity
  8
Default
  6
DASHED
 62
     7
440
 33554687
 48
0.25
370
    35
100
AcDbSpline
210
0.0
220
0.0
230
1.0
 70
    12
 71
     3
 72
     8
 73
     4
 74
     0
 42
0.000000001
 43
0.0000000001
 40
0.0
 40
0.0
 40
0.0
 40
0.0
 40
1.0
 40
1.0
 40
1.0
 40
1.0
 10
-11.10599655332943
 20
7.346840397236974
 30
0.0
 41
0.25
 10
-11.07548231306454
 20
7.385936275838048
 30
0.0
 41
0.25
 10
-11.02424234571835
 20
7.373185411809117
 30
0.0
 41
0.25
 10
-10.9788555544891
 20
7.391339317677648
 30
0.0
 41
0.25
  0
SPLINE
  5
85E
330
1F
100
AcDbEntity
  8
Default
  6
DASHED
 62
     7
440
 33554687
 48
0.25
370
    35
100
AcDbSpline
210
0.0
220
0.0
230
1.0
 70
    12
 71
     3
 72
     8
 73
     4
 74
     0
 42
0.000000001
 43
0.0000000001
 40
0.0
 40
0.0
 40
0.0
 40
0.0
 40
1.0
 40
1.0
 40
1.0
 40
1.0
 10
-10.9788555544891
 20
7.391339317677648
 30
0.0
 41
0.25
 10
-10.95766538801571
 20
7.399815336583287
 30
0.0
 41
0.25
 10
-10.93804830732723
 20
7.391865269063146
 30
0.0
 41
0.25
 10
-10.94707054319759
 20
7.410410419819982
 30
0.0
 41
0.25
  0
SPLINE
  5
85F
330
1F
100
AcDbEntity
  8
Default
  6
DASHED
 62
     7
440
 33554687
 48
0.25
370
    35
100
AcDbSpline
210
0.0
220
0.0
230
1.0
 70
    12
 71
     3
 72
     8
 73
     4
 74
     0
 42
0.000000001
 43
0.0000000001
 40
0.0
 40
0.0
 40
0.0
 40
0.0
 40
1.0
 40
1.0
 40
1.0
 40
1.0
 10
-10.94707054319759
 20
7.410410419819982
 30
0.0
 41
0.25
 10
-10.97567743482968
 20
7.469213262913854
 30
0.0
 41
0.25
 10
-11.06204647245785
 20
7.534679428456456
 30
0.0
 41
0.25
 10
-11.0932821673431
 20
7.626550213215978
 30
0.0
 41
0.25
  0
SPLINE
  5
860
330
1F
100
AcDbEntity
  8
Default
  6
DASHED
 62
     7
440
 33554687
 48
0.25
370
    35
100
AcDbSpline
210
0.0
220
0.0
230
1.0
 70
    12
 71
     3
 72
     8
 73
     4
 74
     0
 42
0.000000001
 43
0.0000000001
 40
0.0
 40
0.0
 40
0.0
 40
0.0
 40
1.0
 40
1.0
 40
1.0
 40
1.0
 10
-11.0932821673431
 20
7.626550213215978
 30
0.0
 41
0.25
 10
-11.11655849638363
 20
7.695010439274938
 30
0.0
 41
0.25
 10
-11.08005232038876
 20
7.692968384144933
 30
0.0
 41
0.25
 10
-11.05514043989559
 20
7.72826339375797
 30
0.0
 41
0.25
  0
SPLINE
  5
861
330
1F
100
AcDbEntity
  8
Default
  6
DASHED
 62
     7
440
 33554687
 48
0.25
370
    35
100
AcDbSpline
210
0.0
220
0.0
230
1.0
 70
    12
 71
     3
 72
     8
 73
     4
 74
     0
 42
0.000000001
 43
0.0000000001
 40
0.0
 40
0.0
 40
0.0
 40
0.0
 40
1.0
 40
1.0
 40
1.0
 40
1.0
 10
-11.05514043989559
 20
7.72826339375797
 30
0.0
 41
0.25
 10
-11.04903740110775
 20
7.736908213017613
 30
0.0
 41
0.25
 10
-11.01909345808407
 20
7.723443285344274
 30
0.0
 41
0.25
 10
-11.01699728193661
 20
7.734620348332555
 30
0.0
 41
0.25
  0
SPLINE
  5
862
330
1F
100
AcDbEntity
  8
Default
  6
DASHED
 62
     7
440
 33554687
 48
0.25
370
    35
100
AcDbSpline
210
0.0
220
0.0
230
1.0
 70
    12
 71
     3
 72
     8
 73
     4
 74
     0
 42
0.000000001
 43
0.0000000001
 40
0.0
 40
0.0
 40
0.0
 40
0.0
 40
1.0
 40
1.0
 40
1.0
 40
1.0
 10
-11.01699728193661
 20
7.734620348332555
 30
0.0
 41
0.25
 10
-11.0131835383453
 20
7.7549622215015
 30
0.0
 41
0.25
 10
-11.05335134687801
 20
7.798070446370275
 30
0.0
 41
0.25
 10
-11.03606933775326
 20
7.829976335881383
 30
0.0
 41
0.25
  0
SPLINE
  5
863
330
1F
100
AcDbEntity
  8
Default
  6
DASHED
 62
     7
440
 33554687
 48
0.25
370
    35
100
AcDbSpline
210
0.0
220
0.0
230
1.0
 70
    12
 71
     3
 72
     8
 73
     4
 74
     0
 42
0.000000001
 43
0.0000000001
 40
0.0
 40
0.0
 40
0.0
 40
0.0
 40
1.0
 40
1.0
 40
1.0
 40
1.0
 10
-11.03606933775326
 20
7.829976335881383
 30
0.0
 41
0.25
 10
-11.01770443144222
 20
7.863880411503942
 30
0.0
 41
0.25
 10
-10.97673649015804
 20
7.865999237416417
 30
0.0
 41
0.25
 10
-10.93435615721127
 20
7.887189403889806
 30
0.0
 41
0.25
  0
SPLINE
  5
864
330
1F
100
AcDbEntity
  8
Default
  6
DASHED
 62
     7
440
 33554687
 48
0.25
370
    35
100
AcDbSpline
210
0.0
220
0.0
230
1.0
 70
    12
 71
     3
 72
     8
 73
     4
 74
     0
 42
0.000000001
 43
0.0000000001
 40
0.0
 40
0.0
 40
0.0
 40
0.0
 40
1.0
 40
1.0
 40
1.0
 40
1.0
 10
-10.93435615721127
 20
7.887189403889806
 30
0.0
 41
0.25
 10
-10.92545646849056
 20
7.888460413334996
 30
0.0
 41
0.25
 10
-10.91401333036801
 20
7.892274395344884
 30
0.0
 41
0.25
 10
-10.90892833891293
 20
7.893546358464391
 30
0.0
 41
0.25
  0
LINE
  5
865
330
1F
100
AcDbEntity
  8
Default
  6
DASHED
 62
   254
420
 13882323
440
 33554687
 48
0.25
370
    35
100
AcDbLine
 10
-8.085317556289638
 20
10.03517927300754
 30
0.0
 11
-8.085317556289638
 21
4.948740497944982
 31
0.0
  0
DIMENSION
  5
866
330
1F
100
AcDbEntity
  8
Default
 48
0.5
100
AcDbDimension
280
     0
  2
*D22
 10
-6.865379278091396
 20
10.23810525309864
 30
0.0
 11
-7.499658529190028
 21
10.34778781292047
 31
0.0
 70
    32
  1
\fMontserrat|b0|i0|p0;\H0.666667x;\l24" O.C. MAX.\P
 71
     5
 42
1.268558502197265
 73
     0
 74
     0
 75
     0
  3
DS_0
100
AcDbAlignedDimension
 13
-8.133937780288661
 23
10.02456332814517
 33
0.0
 14
-6.865379278091396
 24
10.02456332814517
 34
0.0
100
AcDbRotatedDimension
1001
ACAD
1000
DSTYLE
1002
{
1070
   340
1005
CE
1070
    41
1040
0.104166679084301
1070
   173
1070
     1
1070
   177
1070
     7
1070
   176
1070
     7
1070
   372
1070
    15
1070
   371
1070
    15
1070
    77
1070
     1
1070
   174
1070
     1
1070
    73
1070
     0
1070
   147
1040
0.0700000002980232
1070
    44
1040
0.0700000002980232
1070
   140
1040
0.1
1070
   277
1070
     4
1070
   271
1070
     6
1070
    78
1070
     1
1070
   144
1040
1.0
1070
    42
1040
0.0
1002
}
  0
LINE
  5
867
330
1F
100
AcDbEntity
  8
Default
  6
DASHED
 62
   254
420
 13882323
440
 33554687
 48
0.25
370
    35
100
AcDbLine
 10
-8.168457929519618
 20
10.04018832814518
 30
0.0
 11
-8.168457929519618
 21
4.938323513386876
 31
0.0
  0
DIMENSION
  5
868
330
1F
100
AcDbEntity
  8
Default
 48
0.5
100
AcDbDimension
280
     0
  2
*D23
 10
-11.61271518888852
 20
8.724237219212685
 30
0.0
 11
-11.61271518888851
 21
8.883246795056496
 31
0.0
 70
    32
  1
\fMontserrat|b0|i0|p0;\H0.666667x;\l6" MIN. (TYP.)\P
 71
     5
 42
0.3180191516876221
 73
     0
 74
     0
 75
     0
  3
DS_0
100
AcDbAlignedDimension
 13
-11.8418492716827
 23
9.042256370900304
 33
0.0
 14
-11.8418492716827
 24
8.724237219212682
 34
0.0
 50
270.0
100
AcDbRotatedDimension
1001
ACAD
1000
DSTYLE
1002
{
1070
   340
1005
CE
1070
    41
1040
0.104166679084301
1070
   173
1070
     1
1070
   177
1070
     7
1070
   176
1070
     7
1070
   372
1070
    15
1070
   371
1070
    15
1070
    77
1070
     0
1070
   174
1070
     1
1070
    73
1070
     0
1070
   147
1040
0.0700000002980232
1070
    44
1040
0.0700000002980232
1070
   140
1040
0.1
1070
   277
1070
     4
1070
   271
1070
     6
1070
    78
1070
     1
1070
   144
1040
1.0
1070
    42
1040
0.0
1002
}
  0
DIMENSION
  5
869
330
1F
100
AcDbEntity
  8
Default
 48
0.5
100
AcDbDimension
280
     0
  2
*D24
 10
-7.112715665725673
 20
5.864938274739417
 30
0.0
 11
-7.11271566572567
 21
6.023788229344521
 31
0.0
 70
    32
  1
\fMontserrat|b0|i0|p0;\H0.666667x;\l6" MIN. (TYP.)\P
 71
     5
 42
0.317699909210206
 73
     0
 74
     0
 75
     0
  3
DS_0
100
AcDbAlignedDimension
 13
-6.903342191604579
 23
6.18263818394962
 33
0.0
 14
-6.903342191604579
 24
5.864938274739415
 34
0.0
 50
270.0
100
AcDbRotatedDimension
1001
ACAD
1000
DSTYLE
1002
{
1070
   340
1005
CE
1070
    41
1040
0.104166679084301
1070
   173
1070
     1
1070
   177
1070
     7
1070
   176
1070
     7
1070
   372
1070
    15
1070
   371
1070
    15
1070
    77
1070
     0
1070
   174
1070
     1
1070
    73
1070
     0
1070
   147
1040
0.0700000002980232
1070
    44
1040
0.0700000002980232
1070
   140
1040
0.1
1070
   277
1070
     4
1070
   271
1070
     6
1070
    78
1070
     1
1070
   144
1040
1.0
1070
    42
1040
0.125
1002
}
  0
LINE
  5
86A
330
1F
100
AcDbEntity
  8
Default
 62
     7
440
 33554687
370
    35
100
AcDbLine
 10
-6.284615461257899
 20
10.02456332814517
 30
0.0
 11
-6.280826513198817
 21
7.706854359028966
 31
0.0
  0
LINE
  5
86B
330
1F
100
AcDbEntity
  8
Default
 62
     7
440
 33554687
370
    35
100
AcDbLine
 10
-6.114159528640712
 20
7.706854359028966
 30
0.0
 11
-6.447492544082606
 21
7.540188328145177
 31
0.0
  0
LINE
  5
86C
330
1F
100
AcDbEntity
  8
Default
 62
     7
440
 33554687
370
    35
100
AcDbLine
 10
-6.280826513198817
 20
7.706854359028966
 30
0.0
 11
-6.114159528640712
 21
7.706854359028966
 31
0.0
  0
LINE
  5
86D
330
1F
100
AcDbEntity
  8
Default
 62
     7
440
 33554687
370
    35
100
AcDbLine
 10
-6.447492544082606
 20
7.540188328145177
 30
0.0
 11
-6.280826513198817
 21
7.540188328145177
 31
0.0
  0
LINE
  5
86E
330
1F
100
AcDbEntity
  8
Default
 62
     7
440
 33554687
370
    35
100
AcDbLine
 10
-6.280826513198817
 20
7.540188328145177
 30
0.0
 11
-6.284616414932216
 21
4.938323513386876
 31
0.0
  0
LINE
  5
86F
330
1F
100
AcDbEntity
  8
Default
 62
     7
440
 33554687
370
    35
100
AcDbLine
 10
-12.44696134748837
 20
10.02456332814517
 30
0.0
 11
-12.44317239942928
 21
7.706855312703282
 31
0.0
  0
LINE
  5
870
330
1F
100
AcDbEntity
  8
Default
 62
     7
440
 33554687
370
    35
100
AcDbLine
 10
-12.27650541487118
 20
7.706855312703282
 30
0.0
 11
-12.60983843031307
 21
7.540188328145177
 31
0.0
  0
LINE
  5
871
330
1F
100
AcDbEntity
  8
Default
 62
     7
440
 33554687
370
    35
100
AcDbLine
 10
-12.44317239942928
 20
7.706855312703282
 30
0.0
 11
-12.27650541487118
 21
7.706855312703282
 31
0.0
  0
LINE
  5
872
330
1F
100
AcDbEntity
  8
Default
 62
     7
440
 33554687
370
    35
100
AcDbLine
 10
-12.60983843031307
 20
7.540188328145177
 30
0.0
 11
-12.44317239942928
 21
7.540188328145177
 31
0.0
  0
LINE
  5
873
330
1F
100
AcDbEntity
  8
Default
 62
     7
440
 33554687
370
    35
100
AcDbLine
 10
-12.44317239942928
 20
7.540188328145177
 30
0.0
 11
-12.44696230116268
 21
4.938323513386876
 31
0.0
  0
LINE
  5
874
330
1F
100
AcDbEntity
  8
Default
 62
     7
440
 33554687
370
    35
100
AcDbLine
 10
-12.45102328482052
 20
10.03517927300754
 30
0.0
 11
-9.575943414596522
 21
10.03517927300754
 31
0.0
  0
LINE
  5
875
330
1F
100
AcDbEntity
  8
Default
 62
     7
440
 33554687
370
    35
100
AcDbLine
 10
-9.575943414596522
 20
10.03517927300754
 30
0.0
 11
-9.575943414596522
 21
9.868513361333043
 31
0.0
  0
LINE
  5
876
330
1F
100
AcDbEntity
  8
Default
 62
     7
440
 33554687
370
    35
100
AcDbLine
 10
-9.409277383712733
 20
10.03517927300754
 30
0.0
 11
-6.284359876541103
 21
10.03517927300754
 31
0.0
  0
LINE
  5
877
330
1F
100
AcDbEntity
  8
Default
 62
     7
440
 33554687
370
    35
100
AcDbLine
 10
-9.409277383712733
 20
10.20184613835636
 30
0.0
 11
-9.409277383712733
 21
10.03517927300754
 31
0.0
  0
LINE
  5
878
330
1F
100
AcDbEntity
  8
Default
 62
     7
440
 33554687
370
    35
100
AcDbLine
 10
-9.575943414596522
 20
9.868513361333043
 30
0.0
 11
-9.409277383712733
 21
10.20184613835636
 31
0.0
  0
LINE
  5
879
330
1F
100
AcDbEntity
  8
Default
 62
     7
440
 33554687
370
    35
100
AcDbLine
 10
-12.45127934637447
 20
4.933115497944982
 30
0.0
 11
-9.576195184616054
 21
4.933115497944982
 31
0.0
  0
LINE
  5
87A
330
1F
100
AcDbEntity
  8
Default
 62
     7
440
 33554687
370
    35
100
AcDbLine
 10
-9.576195184616054
 20
4.933115497944982
 30
0.0
 11
-9.576195184616054
 21
4.766448513386876
 31
0.0
  0
LINE
  5
87B
330
1F
100
AcDbEntity
  8
Default
 62
     7
440
 33554687
370
    35
100
AcDbLine
 10
-9.409530584243739
 20
4.933115497944982
 30
0.0
 11
-6.284616414932216
 21
4.933115497944982
 31
0.0
  0
LINE
  5
87C
330
1F
100
AcDbEntity
  8
Default
 62
     7
440
 33554687
370
    35
100
AcDbLine
 10
-9.409530584243739
 20
5.099781528828771
 30
0.0
 11
-9.409530584243739
 21
4.933115497944982
 31
0.0
  0
LINE
  5
87D
330
1F
100
AcDbEntity
  8
Default
 62
     7
440
 33554687
370
    35
100
AcDbLine
 10
-9.576195184616054
 20
4.766448513386876
 30
0.0
 11
-9.409530584243739
 21
5.099781528828771
 31
0.0
  0
LINE
  5
87E
330
1F
100
AcDbEntity
  8
Default
  6
DASHED
 62
   254
420
 13882323
440
 33554687
 48
0.25
370
    35
100
AcDbLine
 10
-9.441728536514247
 20
5.051011101124913
 30
0.0
 11
-9.441728536514247
 21
10.13694460761371
 31
0.0
  0
LINE
  5
87F
330
1F
100
AcDbEntity
  8
Default
  6
DASHED
 62
   254
420
 13882323
440
 33554687
 48
0.25
370
    35
100
AcDbLine
 10
-9.36794943037411
 20
10.02456332814517
 30
0.0
 11
-9.36794943037411
 21
4.938323513386876
 31
0.0
  0
LINE
  5
880
330
1F
100
AcDbEntity
  8
Default
  6
DASHED
 62
   254
420
 13882323
440
 33554687
 48
0.25
370
    35
100
AcDbLine
 10
-10.62376112165829
 20
4.933115497944982
 30
0.0
 11
-10.62376112165829
 21
10.03517927300754
 31
0.0
  0
LINE
  5
881
330
1F
100
AcDbEntity
  8
Default
  6
DASHED
 62
   254
420
 13882323
440
 33554687
 48
0.25
370
    35
100
AcDbLine
 10
-10.71611637297054
 20
4.933115497944982
 30
0.0
 11
-10.71611637297054
 21
10.03517927300754
 31
0.0
  0
LINE
  5
882
330
1F
100
AcDbEntity
  8
Default
  6
DASHED
 62
   254
420
 13882323
440
 33554687
 48
0.25
370
    35
100
AcDbLine
 10
-6.816060010818446
 20
10.03517927300754
 30
0.0
 11
-6.816060010818446
 21
4.933115497944982
 31
0.0
  0
LINE
  5
883
330
1F
100
AcDbEntity
  8
Default
  6
DASHED
 62
   254
420
 13882323
440
 33554687
 48
0.25
370
    35
100
AcDbLine
 10
-6.907362882522548
 20
4.933115497944982
 30
0.0
 11
-6.907362882522548
 21
10.03517927300754
 31
0.0
  0
LINE
  5
884
330
1F
100
AcDbEntity
  8
Default
  6
DASHED
 62
   254
420
 13882323
440
 33554687
 48
0.25
370
    35
100
AcDbLine
 10
-6.903342191604579
 20
5.864938274739415
 30
0.0
 11
-6.980827276138271
 21
5.864938274739415
 31
0.0
  0
LINE
  5
885
330
1F
100
AcDbEntity
  8
Default
  6
DASHED
 62
     7
440
 33554687
 48
0.25
370
    35
100
AcDbLine
 10
-6.980827276138271
 20
5.864938274739415
 30
0.0
 11
-6.980827276138271
 21
9.047230259297521
 31
0.0
  0
LINE
  5
886
330
1F
100
AcDbEntity
  8
Default
  6
DASHED
 62
     7
440
 33554687
 48
0.25
370
    35
100
AcDbLine
 10
-6.980827276138271
 20
9.047230259297521
 30
0.0
 11
-6.907362882522548
 21
9.047230259297521
 31
0.0
  0
LINE
  5
887
330
1F
100
AcDbEntity
  8
Default
  6
DASHED
 62
     7
440
 33554687
 48
0.25
370
    35
100
AcDbLine
 10
-6.907362882522548
 20
9.047230259297521
 30
0.0
 11
-6.907362882522548
 21
5.864938274739415
 31
0.0
  0
LINE
  5
888
330
1F
100
AcDbEntity
  8
Default
  6
DASHED
 62
     7
440
 33554687
 48
0.25
370
    35
100
AcDbLine
 10
-6.907362882522548
 20
5.864938274739415
 30
0.0
 11
-6.980827276138271
 21
5.864938274739415
 31
0.0
  0
LINE
  5
889
330
1F
100
AcDbEntity
  8
Default
  6
DASHED
 62
   254
420
 13882323
440
 33554687
 48
0.25
370
    35
100
AcDbLine
 10
-11.98951524916073
 20
10.03517927300754
 30
0.0
 11
-11.98951524916073
 21
4.933115497944982
 31
0.0
  0
LINE
  5
88A
330
1F
100
AcDbEntity
  8
Default
  6
DASHED
 62
   254
420
 13882323
440
 33554687
 48
0.25
370
    35
100
AcDbLine
 10
-11.90356821241757
 20
4.933115497944982
 30
0.0
 11
-11.90356821241757
 21
10.03517927300754
 31
0.0
  0
LINE
  5
88B
330
1F
100
AcDbEntity
  8
Default
  6
DASHED
 62
     7
440
 33554687
 48
0.25
370
    35
100
AcDbLine
 10
-11.90356821241757
 20
8.995381370900304
 30
0.0
 11
-11.8262242716827
 21
8.995381370900304
 31
0.0
  0
LINE
  5
88C
330
1F
100
AcDbEntity
  8
Default
  6
DASHED
 62
     7
440
 33554687
 48
0.25
370
    35
100
AcDbLine
 10
-11.8262242716827
 20
8.995381370900304
 30
0.0
 11
-11.8262242716827
 21
5.813089386342198
 31
0.0
  0
LINE
  5
88D
330
1F
100
AcDbEntity
  8
Default
  6
DASHED
 62
     7
440
 33554687
 48
0.25
370
    35
100
AcDbLine
 10
-11.8262242716827
 20
5.813089386342198
 30
0.0
 11
-11.90356821241757
 21
5.813089386342198
 31
0.0
  0
LINE
  5
88E
330
1F
100
AcDbEntity
  8
Default
  6
DASHED
 62
     7
440
 33554687
 48
0.25
370
    35
100
AcDbLine
 10
-11.90356821241757
 20
5.813089386342198
 30
0.0
 11
-11.90356821241757
 21
8.995381370900304
 31
0.0
  0
INSERT
  5
88F
330
1F
100
AcDbEntity
  8
0
100
AcDbBlockReference
  2
ANNO_4
 10
-16.27940935316464
 20
2.571438328145177
 30
0.0
  0
LEADER
  5
890
330
1F
100
AcDbEntity
  8
Default
 48
0.5
100
AcDbLeader
  3
Standard
 76
     3
 10
-11.8262242716827
 20
8.995381370900304
 30
0.0
 10
-11.99528927030941
 20
8.314146295903356
 30
0.0
 10
-12.27629226866146
 20
8.314146295903356
 30
0.0
212
4.003117084503173
222
5.742707967758178
232
0.0
1001
ACAD
1000
DSTYLE
1002
{
1070
    41
1040
0.1874999925494194
1070
   341
1005
0
1070
   176
1070
     7
1070
   371
1070
    15
1002
}
  0
INSERT
  5
891
330
1F
100
AcDbEntity
  8
0
100
AcDbBlockReference
  2
ANNO_5
 10
-16.27940935316464
 20
2.571438328145177
 30
0.0
  0
LEADER
  5
892
330
1F
100
AcDbEntity
  8
Default
 48
0.5
100
AcDbLeader
  3
Standard
 76
     3
 10
-11.85756630125424
 20
6.193583504079015
 30
0.0
 10
-12.42664426985165
 20
5.52133037221256
 30
0.0
 10
-12.62564534368893
 20
5.52133037221256
 30
0.0
212
3.653764009475708
222
2.949892044067382
232
0.0
1001
ACAD
1000
DSTYLE
1002
{
1070
    41
1040
0.1874999925494194
1070
   341
1005
0
1070
   176
1070
     7
1070
   371
1070
    15
1002
}
  0
LINE
  5
893
330
1F
100
AcDbEntity
  8
Default
 62
     7
440
 33554687
370
    35
100
AcDbLine
 10
-11.94567436399838
 20
6.18263818394962
 30
0.0
 11
-6.862476293472255
 21
6.18263818394962
 31
0.0
  0
LINE
  5
894
330
1F
100
AcDbEntity
  8
Default
 62
     7
440
 33554687
370
    35
100
AcDbLine
 10
-6.862476293472255
 20
6.18263818394962
 30
0.0
 11
-6.862476293472255
 21
8.724237219212682
 31
0.0
  0
LINE
  5
895
330
1F
100
AcDbEntity
  8
Default
 62
     7
440
 33554687
370
    35
100
AcDbLine
 10
-6.862476293472255
 20
8.724237219212682
 30
0.0
 11
-11.94567436399838
 21
8.724237219212682
 31
0.0
  0
LINE
  5
896
330
1F
100
AcDbEntity
  8
Default
 62
     7
440
 33554687
370
    35
100
AcDbLine
 10
-11.94567436399838
 20
8.724237219212682
 30
0.0
 11
-11.94567436399838
 21
6.18263818394962
 31
0.0
  0
MTEXT
  5
897
330
1F
100
AcDbEntity
  8
Default
100
AcDbMText
 10
-13.31126052561184
 20
2.946438328145177
 30
0.0
 40
0.1
 41
2.135308027267456
 46
1.520834445953369
 71
     8
 72
     1
  1
\fMontserrat|b0|i0|p0;\H0.500000x;\C7;\lFORTIFIED HOMETM  - HURRICANE (2020)\P\fMontserrat|b0|i0|p0;\H1.000000x;\C7;\lFORTIFIED HOMETM  - HIGH WIND (2020)\P\P
  7
Montserrat
 73
     1
 44
1.0
  0
TEXT
  5
898
330
1F
100
AcDbEntity
  8
Default
 62
     7
100
AcDbText
 10
-14.06586760702511
 20
3.732234815587978
 30
0.0
 40
0.0754335224628449
  1
%%UAPPLICABLE STANDARDS:
  7
RockwellBold
 11
-14.06586760702511
 21
3.706855312703282
 31
0.0
100
AcDbText
 73
     1
  0
IMAGE
  5
899
330
1F
100
AcDbEntity
  8
Images
160
               140
310
8C00000001000000840000000600000005000000C8132466B9992FC000841842A36708400000000000000000C8132466B9992FC000841802A3670D400000000000000000C8132466B9192DC000841802A3670D400000000000000000C8132466B9192DC000841842A36708400000000000000000C8132466B9992FC0008418
310
42A36708400000000000000000
100
AcDbRasterImage
 90
        0
 10
-15.80024260702511
 20
3.050604359028966
 30
0.0
 11
0.0010137875101379
 21
0.0
 31
0.0
 12
0.0
 22
0.0010702046629501
 32
0.0
 13
1233.0
 23
584.0
340
737
 70
    15
280
     0
281
    50
282
    50
283
     0
290
     0
360
89A
 71
     1
 91
        2
 14
-0.5
 24
-0.5
 14
1232.5
 24
583.4999999999999
  0
VIEWPORT
  5
A5
330
A1
100
AcDbEntity
 67
     1
  8
0
100
AcDbViewport
 10
5.074476804859134
 20
2.670291592528748
 30
0.0
 40
54.04723181892345
 41
22.00152799708388
 68
     1
 69
     1
 12
5.074476804859134
 22
2.670291592528748
 13
0.0
 23
0.0
 14
0.5
 24
0.5
 15
0.5
 25
0.5
 16
0.0
 26
0.0
 36
1.0
 17
0.0
 27
0.0
 37
0.0
 42
50.0
 43
0.0
 44
0.0
 45
22.00152799708388
 50
0.0
 51
0.0
 72
   100
 90
   557152
  1

281
     0
 71
     1
 74
     0
110
0.0
120
0.0
130
0.0
111
1.0
121
0.0
131
0.0
112
0.0
122
1.0
132
0.0
 79
     0
146
0.0
170
     0
 61
     5
348
2F
292
     1
282
     1
141
0.0
142
0.0
361
A6
  0
LINE
  5
A9
330
A1
100
AcDbEntity
 67
     1
  8
Default
 62
     7
440
 33554687
 48
0.5
370
    15
100
AcDbLine
 10
0.1666666716337204
 20
8.333333328366279
 30
0.0
 11
10.83333396911621
 21
8.333333328366279
 31
0.0
  0
LINE
  5
AA
330
A1
100
AcDbEntity
 67
     1
  8
Default
 62
     7
440
 33554687
 48
0.5
370
    15
100
AcDbLine
 10
10.83333396911621
 20
8.333333328366279
 30
0.0
 11
10.83333396911621
 21
0.1666660308837891
 31
0.0
  0
LINE
  5
AB
330
A1
100
AcDbEntity
 67
     1
  8
Default
 62
     7
440
 33554687
 48
0.5
370
    15
100
AcDbLine
 10
10.83333396911621
 20
0.1666660308837891
 30
0.0
 11
0.1666666716337204
 21
0.1666660308837891
 31
0.0
  0
LINE
  5
AC
330
A1
100
AcDbEntity
 67
     1
  8
Default
 62
     7
440
 33554687
 48
0.5
370
    15
100
AcDbLine
 10
0.1666666716337204
 20
0.1666660308837891
 30
0.0
 11
0.1666666716337204
 21
8.333333328366279
 31
0.0
  0
LINE
  5
AD
330
A1
100
AcDbEntity
 67
     1
  8
Default
 62
     7
440
 33554687
 48
0.5
370
    15
100
AcDbLine
 10
0.1666666865348816
 20
1.416666030883789
 30
0.0
 11
2.041666746139526
 21
1.416666030883789
 31
0.0
  0
LINE
  5
AE
330
A1
100
AcDbEntity
 67
     1
  8
Default
 62
     7
440
 33554687
 48
0.5
370
    15
100
AcDbLine
 10
2.041666746139526
 20
1.416666030883789
 30
0.0
 11
2.041666746139526
 21
0.1666660308837891
 31
0.0
  0
LINE
  5
AF
330
A1
100
AcDbEntity
 67
     1
  8
Default
 62
     7
440
 33554687
 48
0.5
370
    15
100
AcDbLine
 10
2.041666746139526
 20
0.1666660308837891
 30
0.0
 11
0.1666666865348816
 21
0.1666660308837891
 31
0.0
  0
LINE
  5
B0
330
A1
100
AcDbEntity
 67
     1
  8
Default
 62
     7
440
 33554687
 48
0.5
370
    15
100
AcDbLine
 10
0.1666666865348816
 20
0.1666660308837891
 30
0.0
 11
0.1666666865348816
 21
1.416666030883789
 31
0.0
  0
LINE
  5
B1
330
A1
100
AcDbEntity
 67
     1
  8
Default
 62
     7
440
 33554687
 48
0.5
370
    15
100
AcDbLine
 10
2.041666984558105
 20
1.416666030883789
 30
0.0
 11
3.916666984558105
 21
1.416666030883789
 31
0.0
  0
LINE
  5
B2
330
A1
100
AcDbEntity
 67
     1
  8
Default
 62
     7
440
 33554687
 48
0.5
370
    15
100
AcDbLine
 10
3.916666984558105
 20
1.416666030883789
 30
0.0
 11
3.916666984558105
 21
0.1666660308837891
 31
0.0
  0
LINE
  5
B3
330
A1
100
AcDbEntity
 67
     1
  8
Default
 62
     7
440
 33554687
 48
0.5
370
    15
100
AcDbLine
 10
3.916666984558105
 20
0.1666660308837891
 30
0.0
 11
2.041666984558105
 21
0.1666660308837891
 31
0.0
  0
LINE
  5
B4
330
A1
100
AcDbEntity
 67
     1
  8
Default
 62
     7
440
 33554687
 48
0.5
370
    15
100
AcDbLine
 10
2.041666984558105
 20
0.1666660308837891
 30
0.0
 11
2.041666984558105
 21
1.416666030883789
 31
0.0
  0
IMAGE
  5
B7
330
A1
100
AcDbEntity
 67
     1
  8
Images
160
               140
310
8C00000001000000840000000600000005000000000000C0AAAADE3F00000000A8AADE3F0000000000000000000000C0AAAADE3F00000080A9AAF13F000000000000000000000040ABAAFB3F00000080A9AAF13F000000000000000000000040ABAAFB3F00000000A8AADE3F0000000000000000000000C0AAAADE3F000000
310
00A8AADE3F0000000000000000
100
AcDbRasterImage
 90
        0
 10
0.4791666865348816
 20
0.4791660308837891
 30
0.0
 11
0.0021739139764205
 21
0.0
 31
0.0
 12
0.0
 22
0.0022977923645693
 32
0.0
 13
575.0
 23
272.0
340
B6
 70
    15
280
     0
281
    50
282
    50
283
     0
290
     0
360
B8
 71
     1
 91
        2
 14
-0.5
 24
-0.5
 14
574.5
 24
271.5
  0
LINE
  5
BA
330
A1
100
AcDbEntity
 67
     1
  8
Default
 62
     7
440
 33554687
 48
0.5
370
    15
100
AcDbLine
 10
10.83333015441894
 20
1.416666030883789
 30
0.0
 11
3.916666984558105
 21
1.416666030883789
 31
0.0
  0
LINE
  5
BB
330
A1
100
AcDbEntity
 67
     1
  8
Default
 62
     7
440
 33554687
 48
0.5
370
    15
100
AcDbLine
 10
3.916666984558105
 20
1.416666030883789
 30
0.0
 11
8.416667938232421
 21
1.416666030883789
 31
0.0
  0
LINE
  5
BC
330
A1
100
AcDbEntity
 67
     1
  8
0
 60
     1
100
AcDbLine
 10
8.416667938232421
 20
1.416666030883789
 30
0.0
 11
10.83333015441894
 21
1.416666030883789
 31
0.0
  0
LINE
  5
BD
330
A1
100
AcDbEntity
 67
     1
  8
Default
 62
     7
440
 33554687
 48
0.5
370
    15
100
AcDbLine
 10
3.916666984558105
 20
1.416666030883789
 30
0.0
 11
8.166384696960449
 21
1.416666030883789
 31
0.0
  0
LINE
  5
BE
330
A1
100
AcDbEntity
 67
     1
  8
Default
 62
     7
440
 33554687
 48
0.5
370
    15
100
AcDbLine
 10
8.166384696960449
 20
1.416666030883789
 30
0.0
 11
8.166384696960449
 21
0.1666660308837891
 31
0.0
  0
LINE
  5
BF
330
A1
100
AcDbEntity
 67
     1
  8
Default
 62
     7
440
 33554687
 48
0.5
370
    15
100
AcDbLine
 10
8.166384696960449
 20
0.1666660308837891
 30
0.0
 11
8.166384696960449
 21
0.4166660308837891
 31
0.0
  0
LINE
  5
C0
330
A1
100
AcDbEntity
 67
     1
  8
Default
 62
     7
440
 33554687
 48
0.5
370
    15
100
AcDbLine
 10
8.166384696960449
 20
0.4166660308837891
 30
0.0
 11
10.83333015441894
 21
0.4166660308837891
 31
0.0
  0
LINE
  5
C1
330
A1
100
AcDbEntity
 67
     1
  8
0
 60
     1
100
AcDbLine
 10
10.83333015441894
 20
0.4166660308837891
 30
0.0
 11
3.916666984558105
 21
1.416666030883789
 31
0.0
  0
LINE
  5
C2
330
A1
100
AcDbEntity
 67
     1
  8
Default
 62
     7
440
 33554687
 48
0.5
370
    15
100
AcDbLine
 10
3.916666984558105
 20
1.416666030883789
 30
0.0
 11
5.166666984558105
 21
1.416666030883789
 31
0.0
  0
LINE
  5
C3
330
A1
100
AcDbEntity
 67
     1
  8
Default
 62
     7
440
 33554687
 48
0.5
370
    15
100
AcDbLine
 10
5.166666984558105
 20
1.416666030883789
 30
0.0
 11
5.166666984558105
 21
1.166666507720947
 31
0.0
  0
LINE
  5
C4
330
A1
100
AcDbEntity
 67
     1
  8
Default
 62
     7
440
 33554687
 48
0.5
370
    15
100
AcDbLine
 10
5.166666984558105
 20
1.166666507720947
 30
0.0
 11
3.916666984558105
 21
1.166666507720947
 31
0.0
  0
LINE
  5
C5
330
A1
100
AcDbEntity
 67
     1
  8
Default
 62
     7
440
 33554687
 48
0.5
370
    15
100
AcDbLine
 10
3.916666984558105
 20
1.166666507720947
 30
0.0
 11
3.916666984558105
 21
1.416666030883789
 31
0.0
  0
LINE
  5
C6
330
A1
100
AcDbEntity
 67
     1
  8
Default
 62
     7
440
 33554687
 48
0.5
370
    15
100
AcDbLine
 10
8.166383743286132
 20
1.416666030883789
 30
0.0
 11
9.233421325683593
 21
1.416666030883789
 31
0.0
  0
LINE
  5
C7
330
A1
100
AcDbEntity
 67
     1
  8
Default
 62
     7
440
 33554687
 48
0.5
370
    15
100
AcDbLine
 10
9.233421325683593
 20
1.416666030883789
 30
0.0
 11
9.233421325683593
 21
1.166666507720947
 31
0.0
  0
LINE
  5
C8
330
A1
100
AcDbEntity
 67
     1
  8
Default
 62
     7
440
 33554687
 48
0.5
370
    15
100
AcDbLine
 10
9.233421325683593
 20
1.166666507720947
 30
0.0
 11
8.166383743286132
 21
1.166666507720947
 31
0.0
  0
LINE
  5
C9
330
A1
100
AcDbEntity
 67
     1
  8
Default
 62
     7
440
 33554687
 48
0.5
370
    15
100
AcDbLine
 10
8.166383743286132
 20
1.166666507720947
 30
0.0
 11
8.166383743286132
 21
1.416666030883789
 31
0.0
  0
TEXT
  5
CB
330
A1
100
AcDbEntity
 67
     1
  8
Default
 62
     7
100
AcDbText
 10
3.979166984558105
 20
1.229654790364189
 30
0.0
 40
0.0942919030785561
  1
DESCRIPTION:
  7
RockwellBold
 11
3.979166984558105
 21
1.197916507720947
 31
0.0
100
AcDbText
 73
     1
  0
TEXT
  5
CC
330
A1
100
AcDbEntity
 67
     1
  8
Default
 62
     7
100
AcDbText
 10
8.228884696960449
 20
1.229654790364189
 30
0.0
 40
0.0942919030785561
  1
DRAWING #:
  7
RockwellBold
 11
8.228884696960449
 21
1.197916507720947
 31
0.0
100
AcDbText
 73
     1
  0
TEXT
  5
CD
330
A1
100
AcDbEntity
 67
     1
  8
Default
 62
     7
100
AcDbText
 10
8.213259696960449
 20
0.2296543135270313
 30
0.0
 40
0.0942919030785561
  1
DATE:
  7
RockwellBold
 11
8.213259696960449
 21
0.197916030883789
 31
0.0
100
AcDbText
 73
     1
  0
MTEXT
  5
CF
330
A1
100
AcDbEntity
 67
     1
  8
Default
 62
     7
100
AcDbMText
 10
4.738337993621826
 20
0.6377201080322266
 30
0.0
 40
0.1
 41
2.865828037261962
 46
1.427082538604736
 71
     7
 72
     1
  1
\fMontserrat|b0|i0|p0;\H0.833333x;\C7;\lRE-ROOFING DECK REPLACEMENT \P\fMontserrat|b0|i0|p0;\H1.000000x;\C7;\lFASTENING DETAIL\P
  7
Montserrat
 73
     1
 44
1.0
  0
MTEXT
  5
D0
330
A1
100
AcDbEntity
 67
     1
  8
Default
 62
     7
100
AcDbMText
 10
9.526183605194091
 20
0.6592741012573243
 30
0.0
 40
0.1
 41
1.104449272155761
 46
0.851142406463623
 71
     8
 72
     1
  1
\fMontserrat|b0|i0|p0;\H0.833333x;\lF-RR-1\P\P
  7
Montserrat
 73
     1
 44
1.0
  0
TEXT
  5
D1
330
A1
100
AcDbEntity
 67
     1
  8
Default
 62
     7
100
AcDbText
 10
9.175192844654832
 20
0.2256938094894091
 30
0.0
 40
0.0833333358168602
  1
11/01/2020
  7
Montserrat
 72
     1
 11
9.544240474700927
 21
0.197916030883789
 31
0.0
100
AcDbText
 73
     1
  0
VIEWPORT
  5
D2
330
A1
100
AcDbEntity
 67
     1
  8
Viewports
100
AcDbViewport
 10
6.911460399627685
 20
4.91000485420227
 30
0.0
 40
6.166666984558105
 41
5.086240291595458
 68
     2
 69
     2
 12
0.0
 22
0.0
 13
0.0
 23
0.0
 14
0.5
 24
0.5
 15
0.5
 25
0.5
 16
0.0
 26
0.0
 36
1.0
 17
58.23106253320576
 27
48.02872884500823
 37
0.0
 42
50.0
 43
0.0
 44
0.0
 45
96.05745769001647
 50
0.0
 51
0.0
 72
   100
 90
   622688
340
D4
  1

281
     0
 71
     1
 74
     0
110
0.0
120
0.0
130
0.0
111
1.0
121
0.0
131
0.0
112
0.0
122
1.0
132
0.0
 79
     0
146
0.0
170
     0
 61
     5
348
2F
292
     1
282
     1
141
0.0
142
0.0
361
D5
  0
LWPOLYLINE
  5
D4
102
{ACAD_REACTORS
330
D2
102
}
330
A1
100
AcDbEntity
 67
     1
  8
Viewports
100
AcDbPolyline
 90
        5
 70
     0
 43
0.0
 10
9.994792938232421
 20
2.366884708404541
 10
3.828126907348632
 20
2.366885185241699
 10
3.828126907348632
 20
7.453125
 10
9.994793891906738
 20
7.453125
 10
9.994792938232421
 20
2.366884708404541
  0
MTEXT
  5
65F
330
A1
100
AcDbEntity
 67
     1
  8
Default
 62
     7
100
AcDbMText
 10
0.2604166865348816
 20
6.003986120223999
 30
0.0
 40
0.1
 41
3.557552874088287
 46
3.634180545806884
 71
     7
 72
     1
  3
\P\fMontserrat|b0|i0|p0;\H0.666667x;\C7;\l^I\LGENERAL NOTES:\P\fMontserrat|b0|i0|p0;\H1.000000x;\C7;\l1.REFER TO APPLICABLE FORTIFIED HOME \P\fMontserrat|b0|i0|p0;\H1.000000x;\C7;\lSTANDARDS FOR ADDITIONAL INFORMATION.\P\fMontserrat|b0|i0|p0;\H1.00000
  3
0x;\C7;\l2.WHEN REPLACING AN ENTIRE DAMAGED SHEET \P\fMontserrat|b0|i0|p0;\H1.000000x;\C7;\lWITH A DIMENSION OF LESS THAN 24" IN ANY \P\fMontserrat|b0|i0|p0;\H1.000000x;\C7;\lDIRECTION, PROVIDE 2X4 BLOCKING ALONG ALL \P\fMontserrat|b0|i0|p0;\H1.00000
  3
0x;\C7;\lUNSUPPORTED EDGES, AND FASTEN SHEATHING IN \P\fMontserrat|b0|i0|p0;\H1.000000x;\C7;\lACCORDANCE WITH F-RR-3 AND F-RR-4.\P\fMontserrat|b0|i0|p0;\H1.000000x;\C7;\l3.FORTIFIED HOME STANDARDS ARE TO BE APPLIED \P\fMontserrat|b0|i0|p0;\H1.000000x
  3
;\C7;\lIN CONJUNCTION WITH FEDERAL, STATE, AND \P\fMontserrat|b0|i0|p0;\H1.000000x;\C7;\lLOCAL CODES, ORDINANCES AND REGULATIONS IN \P\fMontserrat|b0|i0|p0;\H1.000000x;\C7;\lADDITION TO THE STRUCTURAL DESIGN WHICH IS \P\fMontserrat|b0|i0|p0;\H1.00000
  1
0x;\C7;\lBY OTHERS. IN CASE OF A CONFLICT BETWEEN \P\fMontserrat|b0|i0|p0;\H1.000000x;\C7;\lPROVISIONS, USE WHICHEVER IS MORE STRINGENT. \P\P
  7
Montserrat
 73
     1
 44
1.0
  0
DIMENSION
  5
661
330
A1
100
AcDbEntity
 67
     1
  8
Default
 48
0.5
100
AcDbDimension
280
     0
  2
*D9
 10
-501.9909057617187
 20
5.140730142593383
 30
0.0
 11
-501.9909057617187
 21
5.284637331962585
 31
0.0
 70
    32
  1
\fMontserrat|b0|i0|p0;\H0.666667x;\l6" MIN. (TYP.)\P
 71
     5
 42
5.435590126153927
 73
     0
 74
     0
 75
     0
 53
90.0
  3
DS_0
100
AcDbAlignedDimension
 13
-502.251953125
 23
5.428544521331787
 33
0.0
 14
-502.251953125
 24
5.140730142593383
 34
0.0
 50
-90.0
100
AcDbRotatedDimension
1001
ACAD
1000
DSTYLE
1002
{
1070
   340
1005
CE
1070
    41
1040
0.104166679084301
1070
   173
1070
     1
1070
   177
1070
     7
1070
   176
1070
     7
1070
   372
1070
    15
1070
   371
1070
    15
1070
    77
1070
     0
1070
   174
1070
     1
1070
   147
1040
0.0700000002980232
1070
    44
1040
0.0700000002980232
1070
   140
1040
0.1
1070
   277
1070
     4
1070
   271
1070
     6
1070
    78
1070
     1
1070
   144
1040
18.88574903720977
1070
    42
1040
0.0
1002
}
  0
INSERT
  5
674
330
A1
100
AcDbEntity
 67
     1
  8
0
100
AcDbBlockReference
  2
ANNO_0
 10
0.0
 20
0.0
 30
0.0
  0
LEADER
  5
675
330
A1
100
AcDbEntity
 67
     1
  8
Default
 48
0.5
100
AcDbLeader
  3
Standard
 73
     2
 76
     3
 10
5.389553070068359
 20
4.343122959136962
 30
0.0
 10
5.173208236694335
 20
1.802083015441894
 30
0.0
 10
4.964780807495117
 20
1.802083015441894
 30
0.0
340
674
212
4.964780807495117
222
1.802083015441894
232
0.0
1001
ACAD
1000
DSTYLE
1002
{
1070
    41
1040
0.1874999925494194
1070
   341
1005
0
1070
   176
1070
     7
1070
   371
1070
    15
1002
}
  0
INSERT
  5
67A
330
A1
100
AcDbEntity
 67
     1
  8
0
100
AcDbBlockReference
  2
ANNO_1
 10
0.0
 20
0.0
 30
0.0
  0
LEADER
  5
67B
330
A1
100
AcDbEntity
 67
     1
  8
Default
 48
0.5
100
AcDbLeader
  3
Standard
 73
     2
 76
     3
 10
6.326682090759277
 20
3.795777797698974
 30
0.0
 10
6.658109188079833
 20
1.988760948181152
 30
0.0
 10
6.751835823059082
 20
1.988760948181152
 30
0.0
340
67A
212
6.751835823059082
222
1.988760948181152
232
0.0
1001
ACAD
1000
DSTYLE
1002
{
1070
    41
1040
0.1874999925494194
1070
   341
1005
0
1070
   176
1070
     7
1070
   371
1070
    15
1002
}
  0
INSERT
  5
680
330
A1
100
AcDbEntity
 67
     1
  8
0
100
AcDbBlockReference
  2
ANNO_2
 10
0.0
 20
0.0
 30
0.0
  0
LEADER
  5
681
330
A1
100
AcDbEntity
 67
     1
  8
Default
 48
0.5
100
AcDbLeader
  3
Standard
 73
     2
 76
     3
 10
5.597476959228515
 20
7.453125
 30
0.0
 10
5.724628925323486
 20
8.198958605527877
 30
0.0
 10
5.817877769470214
 20
8.198958605527877
 30
0.0
340
680
212
5.817877769470214
222
8.198958605527877
232
0.0
1001
ACAD
1000
DSTYLE
1002
{
1070
    41
1040
0.1874999925494194
1070
   341
1005
0
1070
   176
1070
     7
1070
   371
1070
    15
1002
}
  0
LINE
  5
682
330
A1
100
AcDbEntity
 67
     1
  8
Default
 62
     7
440
 33554687
370
    35
100
AcDbLine
 10
6.484375
 20
1.938900470733642
 30
0.0
 11
6.739683151245117
 21
1.938900470733642
 31
0.0
  0
LINE
  5
683
330
A1
100
AcDbEntity
 67
     1
  8
Default
 62
     7
440
 33554687
370
    35
100
AcDbLine
 10
6.739683151245117
 20
1.938900470733642
 30
0.0
 11
6.739683151245117
 21
1.666666507720947
 31
0.0
  0
LINE
  5
684
330
A1
100
AcDbEntity
 67
     1
  8
Default
 62
     7
440
 33554687
370
    35
100
AcDbLine
 10
6.739683151245117
 20
1.666666507720947
 30
0.0
 11
6.484375
 21
1.666666507720947
 31
0.0
  0
LINE
  5
685
330
A1
100
AcDbEntity
 67
     1
  8
Default
 62
     7
440
 33554687
370
    35
100
AcDbLine
 10
6.484375
 20
1.666666507720947
 30
0.0
 11
6.484375
 21
1.938900470733642
 31
0.0
  0
INSERT
  5
68A
330
A1
100
AcDbEntity
 67
     1
  8
0
100
AcDbBlockReference
  2
ANNO_3
 10
0.0
 20
0.0
 30
0.0
  0
LEADER
  5
68B
330
A1
100
AcDbEntity
 67
     1
  8
Default
 48
0.5
100
AcDbLeader
  3
Standard
 73
     2
 76
     3
 10
4.00626802444458
 20
3.58469009399414
 30
0.0
 10
3.726818084716796
 20
4.358892917633056
 30
0.0
 10
3.526818037033081
 20
4.358892917633056
 30
0.0
340
68A
212
3.526818037033081
222
4.358892917633056
232
0.0
1001
ACAD
1000
DSTYLE
1002
{
1070
    41
1040
0.1874999925494194
1070
   341
1005
0
1070
   176
1070
     7
1070
   371
1070
    15
1002
}
  0
SPLINE
  5
68D
330
A1
100
AcDbEntity
 67
     1
  8
Default
  6
DASHED
 62
     7
440
 33554687
 48
0.25
370
    35
100
AcDbSpline
210
0.0
220
0.0
230
1.0
 70
    12
 71
     3
 72
     8
 73
     4
 74
     0
 42
0.000000001
 43
0.0000000001
 40
0.0
 40
0.0
 40
0.0
 40
0.0
 40
1.0
 40
1.0
 40
1.0
 40
1.0
 10
5.351409912109375
 20
5.315751075744628
 30
0.0
 41
0.25
 10
5.346714973449707
 20
5.376779079437255
 30
0.0
 41
0.25
 10
5.301878929138183
 20
5.420964002609252
 30
0.0
 41
0.25
 10
5.338696002960205
 20
5.481034040451049
 30
0.0
 41
0.25
  0
SPLINE
  5
68E
330
A1
100
AcDbEntity
 67
     1
  8
Default
  6
DASHED
 62
     7
440
 33554687
 48
0.25
370
    35
100
AcDbSpline
210
0.0
220
0.0
230
1.0
 70
    12
 71
     3
 72
     8
 73
     4
 74
     0
 42
0.000000001
 43
0.0000000001
 40
0.0
 40
0.0
 40
0.0
 40
0.0
 40
1.0
 40
1.0
 40
1.0
 40
1.0
 10
5.338696002960205
 20
5.481034040451049
 30
0.0
 41
0.25
 10
5.355606079101562
 20
5.508624076843261
 30
0.0
 41
0.25
 10
5.421587944030761
 20
5.522939920425415
 30
0.0
 41
0.25
 10
5.472194194793701
 20
5.512819051742553
 30
0.0
 41
0.25
  0
SPLINE
  5
68F
330
A1
100
AcDbEntity
 67
     1
  8
Default
  6
DASHED
 62
     7
440
 33554687
 48
0.25
370
    35
100
AcDbSpline
210
0.0
220
0.0
230
1.0
 70
    12
 71
     3
 72
     8
 73
     4
 74
     0
 42
0.000000001
 43
0.0000000001
 40
0.0
 40
0.0
 40
0.0
 40
0.0
 40
1.0
 40
1.0
 40
1.0
 40
1.0
 10
5.472194194793701
 20
5.512819051742553
 30
0.0
 41
0.25
 10
5.50488805770874
 20
5.506280899047851
 30
0.0
 41
0.25
 10
5.506467819213867
 20
5.433334112167358
 30
0.0
 41
0.25
 10
5.529407978057861
 20
5.44289207458496
 30
0.0
 41
0.25
  0
SPLINE
  5
690
330
A1
100
AcDbEntity
 67
     1
  8
Default
  6
DASHED
 62
     7
440
 33554687
 48
0.25
370
    35
100
AcDbSpline
210
0.0
220
0.0
230
1.0
 70
    12
 71
     3
 72
     8
 73
     4
 74
     0
 42
0.000000001
 43
0.0000000001
 40
0.0
 40
0.0
 40
0.0
 40
0.0
 40
1.0
 40
1.0
 40
1.0
 40
1.0
 10
5.529407978057861
 20
5.44289207458496
 30
0.0
 41
0.25
 10
5.542120933532714
 20
5.44818902015686
 30
0.0
 41
0.25
 10
5.525767803192138
 20
5.512809991836547
 30
0.0
 41
0.25
 10
5.548479080200195
 20
5.544605016708374
 30
0.0
 41
0.25
  0
SPLINE
  5
691
330
A1
100
AcDbEntity
 67
     1
  8
Default
  6
DASHED
 62
     7
440
 33554687
 48
0.25
370
    35
100
AcDbSpline
210
0.0
220
0.0
230
1.0
 70
    12
 71
     3
 72
     8
 73
     4
 74
     0
 42
0.000000001
 43
0.0000000001
 40
0.0
 40
0.0
 40
0.0
 40
0.0
 40
1.0
 40
1.0
 40
1.0
 40
1.0
 10
5.548479080200195
 20
5.544605016708374
 30
0.0
 41
0.25
 10
5.563735008239746
 20
5.565963983535766
 30
0.0
 41
0.25
 10
5.598039150238037
 20
5.593215942382812
 30
0.0
 41
0.25
 10
5.624763011932373
 20
5.576390027999877
 30
0.0
 41
0.25
  0
SPLINE
  5
692
330
A1
100
AcDbEntity
 67
     1
  8
Default
  6
DASHED
 62
     7
440
 33554687
 48
0.25
370
    35
100
AcDbSpline
210
0.0
220
0.0
230
1.0
 70
    12
 71
     3
 72
     8
 73
     4
 74
     0
 42
0.000000001
 43
0.0000000001
 40
0.0
 40
0.0
 40
0.0
 40
0.0
 40
1.0
 40
1.0
 40
1.0
 40
1.0
 10
5.624763011932373
 20
5.576390027999877
 30
0.0
 41
0.25
 10
5.670534133911132
 20
5.547570943832397
 30
0.0
 41
0.25
 10
5.685443878173828
 20
5.485079050064086
 30
0.0
 41
0.25
 10
5.720118999481201
 20
5.436534881591796
 30
0.0
 41
0.25
  0
SPLINE
  5
693
330
A1
100
AcDbEntity
 67
     1
  8
Default
  6
DASHED
 62
     7
440
 33554687
 48
0.25
370
    35
100
AcDbSpline
210
0.0
220
0.0
230
1.0
 70
    12
 71
     3
 72
     8
 73
     4
 74
     0
 42
0.000000001
 43
0.0000000001
 40
0.0
 40
0.0
 40
0.0
 40
0.0
 40
1.0
 40
1.0
 40
1.0
 40
1.0
 10
5.720118999481201
 20
5.436534881591796
 30
0.0
 41
0.25
 10
5.720118999481201
 20
5.436534881591796
 30
0.0
 41
0.25
 10
5.719464778900146
 20
5.441802024841308
 30
0.0
 41
0.25
 10
5.720118999481201
 20
5.44289207458496
 30
0.0
 41
0.25
  0
SPLINE
  5
694
330
A1
100
AcDbEntity
 67
     1
  8
Default
  6
DASHED
 62
     7
440
 33554687
 48
0.25
370
    35
100
AcDbSpline
210
0.0
220
0.0
230
1.0
 70
    12
 71
     3
 72
     8
 73
     4
 74
     0
 42
0.000000001
 43
0.0000000001
 40
0.0
 40
0.0
 40
0.0
 40
0.0
 40
1.0
 40
1.0
 40
1.0
 40
1.0
 10
5.720118999481201
 20
5.44289207458496
 30
0.0
 41
0.25
 10
5.73728322982788
 20
5.471498012542724
 30
0.0
 41
0.25
 10
5.7426118850708
 20
5.513444900512695
 30
0.0
 41
0.25
 10
5.777331829071044
 20
5.531889915466308
 30
0.0
 41
0.25
  0
SPLINE
  5
695
330
A1
100
AcDbEntity
 67
     1
  8
Default
  6
DASHED
 62
     7
440
 33554687
 48
0.25
370
    35
100
AcDbSpline
210
0.0
220
0.0
230
1.0
 70
    12
 71
     3
 72
     8
 73
     4
 74
     0
 42
0.000000001
 43
0.0000000001
 40
0.0
 40
0.0
 40
0.0
 40
0.0
 40
1.0
 40
1.0
 40
1.0
 40
1.0
 10
5.777331829071044
 20
5.531889915466308
 30
0.0
 41
0.25
 10
5.822537899017333
 20
5.555906057357788
 30
0.0
 41
0.25
 10
5.878376960754394
 20
5.57864499092102
 30
0.0
 41
0.25
 10
5.92354393005371
 20
5.550961017608642
 30
0.0
 41
0.25
  0
SPLINE
  5
696
330
A1
100
AcDbEntity
 67
     1
  8
Default
  6
DASHED
 62
     7
440
 33554687
 48
0.25
370
    35
100
AcDbSpline
210
0.0
220
0.0
230
1.0
 70
    12
 71
     3
 72
     8
 73
     4
 74
     0
 42
0.000000001
 43
0.0000000001
 40
0.0
 40
0.0
 40
0.0
 40
0.0
 40
1.0
 40
1.0
 40
1.0
 40
1.0
 10
5.92354393005371
 20
5.550961017608642
 30
0.0
 41
0.25
 10
5.96858787536621
 20
5.523354053497314
 30
0.0
 41
0.25
 10
5.970776081085205
 20
5.469105005264282
 30
0.0
 41
0.25
 10
5.974400997161865
 20
5.411107063293457
 30
0.0
 41
0.25
  0
SPLINE
  5
697
330
A1
100
AcDbEntity
 67
     1
  8
Default
  6
DASHED
 62
     7
440
 33554687
 48
0.25
370
    35
100
AcDbSpline
210
0.0
220
0.0
230
1.0
 70
    12
 71
     3
 72
     8
 73
     4
 74
     0
 42
0.000000001
 43
0.0000000001
 40
0.0
 40
0.0
 40
0.0
 40
0.0
 40
1.0
 40
1.0
 40
1.0
 40
1.0
 10
5.974400997161865
 20
5.411107063293457
 30
0.0
 41
0.25
 10
5.975671768188476
 20
5.390763998031616
 30
0.0
 41
0.25
 10
5.934927940368652
 20
5.368817090988159
 30
0.0
 41
0.25
 10
5.93625783920288
 20
5.347536087036132
 30
0.0
 41
0.25
  0
SPLINE
  5
698
330
A1
100
AcDbEntity
 67
     1
  8
Default
  6
DASHED
 62
     7
440
 33554687
 48
0.25
370
    35
100
AcDbSpline
210
0.0
220
0.0
230
1.0
 70
    12
 71
     3
 72
     8
 73
     4
 74
     0
 42
0.000000001
 43
0.0000000001
 40
0.0
 40
0.0
 40
0.0
 40
0.0
 40
1.0
 40
1.0
 40
1.0
 40
1.0
 10
5.93625783920288
 20
5.347536087036132
 30
0.0
 41
0.25
 10
5.937347888946533
 20
5.330100059509277
 30
0.0
 41
0.25
 10
5.965837001800537
 20
5.338241100311279
 30
0.0
 41
0.25
 10
5.980758190155029
 20
5.309393882751464
 30
0.0
 41
0.25
  0
SPLINE
  5
699
330
A1
100
AcDbEntity
 67
     1
  8
Default
  6
DASHED
 62
     7
440
 33554687
 48
0.25
370
    35
100
AcDbSpline
210
0.0
220
0.0
230
1.0
 70
    12
 71
     3
 72
     8
 73
     4
 74
     0
 42
0.000000001
 43
0.0000000001
 40
0.0
 40
0.0
 40
0.0
 40
0.0
 40
1.0
 40
1.0
 40
1.0
 40
1.0
 10
5.980758190155029
 20
5.309393882751464
 30
0.0
 41
0.25
 10
5.999828815460205
 20
5.272522926330566
 30
0.0
 41
0.25
 10
6.025108814239501
 20
5.220097064971923
 30
0.0
 41
0.25
 10
6.031613826751708
 20
5.163182020187377
 30
0.0
 41
0.25
  0
SPLINE
  5
69A
330
A1
100
AcDbEntity
 67
     1
  8
Default
  6
DASHED
 62
     7
440
 33554687
 48
0.25
370
    35
100
AcDbSpline
210
0.0
220
0.0
230
1.0
 70
    12
 71
     3
 72
     8
 73
     4
 74
     0
 42
0.000000001
 43
0.0000000001
 40
0.0
 40
0.0
 40
0.0
 40
0.0
 40
1.0
 40
1.0
 40
1.0
 40
1.0
 10
6.031613826751708
 20
5.163182020187377
 30
0.0
 41
0.25
 10
6.035428047180175
 20
5.129806995391845
 30
0.0
 41
0.25
 10
6.034891128540039
 20
5.112014055252075
 30
0.0
 41
0.25
 10
6.006186008453369
 20
5.086896896362304
 30
0.0
 41
0.25
  0
SPLINE
  5
69B
330
A1
100
AcDbEntity
 67
     1
  8
Default
  6
DASHED
 62
     7
440
 33554687
 48
0.25
370
    35
100
AcDbSpline
210
0.0
220
0.0
230
1.0
 70
    12
 71
     3
 72
     8
 73
     4
 74
     0
 42
0.000000001
 43
0.0000000001
 40
0.0
 40
0.0
 40
0.0
 40
0.0
 40
1.0
 40
1.0
 40
1.0
 40
1.0
 10
6.006186008453369
 20
5.086896896362304
 30
0.0
 41
0.25
 10
5.975671768188476
 20
5.060198068618774
 30
0.0
 41
0.25
 10
5.879045009613037
 20
5.072452068328857
 30
0.0
 41
0.25
 10
5.879045009613037
 20
5.02968406677246
 30
0.0
 41
0.25
  0
SPLINE
  5
69C
330
A1
100
AcDbEntity
 67
     1
  8
Default
  6
DASHED
 62
     7
440
 33554687
 48
0.25
370
    35
100
AcDbSpline
210
0.0
220
0.0
230
1.0
 70
    12
 71
     3
 72
     8
 73
     4
 74
     0
 42
0.000000001
 43
0.0000000001
 40
0.0
 40
0.0
 40
0.0
 40
0.0
 40
1.0
 40
1.0
 40
1.0
 40
1.0
 10
5.879045009613037
 20
5.02968406677246
 30
0.0
 41
0.25
 10
5.879045009613037
 20
4.999170064926147
 30
0.0
 41
0.25
 10
5.976702213287353
 20
4.986594915390014
 30
0.0
 41
0.25
 10
6.006186008453369
 20
4.934328079223632
 30
0.0
 41
0.25
  0
SPLINE
  5
69D
330
A1
100
AcDbEntity
 67
     1
  8
Default
  6
DASHED
 62
     7
440
 33554687
 48
0.25
370
    35
100
AcDbSpline
210
0.0
220
0.0
230
1.0
 70
    12
 71
     3
 72
     8
 73
     4
 74
     0
 42
0.000000001
 43
0.0000000001
 40
0.0
 40
0.0
 40
0.0
 40
0.0
 40
1.0
 40
1.0
 40
1.0
 40
1.0
 10
6.006186008453369
 20
4.934328079223632
 30
0.0
 41
0.25
 10
6.034156799316406
 20
4.884742975234985
 30
0.0
 41
0.25
 10
6.053514003753662
 20
4.823898077011108
 30
0.0
 41
0.25
 10
6.018899917602539
 20
4.781759023666381
 30
0.0
 41
0.25
  0
SPLINE
  5
69E
330
A1
100
AcDbEntity
 67
     1
  8
Default
  6
DASHED
 62
     7
440
 33554687
 48
0.25
370
    35
100
AcDbSpline
210
0.0
220
0.0
230
1.0
 70
    12
 71
     3
 72
     8
 73
     4
 74
     0
 42
0.000000001
 43
0.0000000001
 40
0.0
 40
0.0
 40
0.0
 40
0.0
 40
1.0
 40
1.0
 40
1.0
 40
1.0
 10
6.018899917602539
 20
4.781759023666381
 30
0.0
 41
0.25
 10
5.991907119750976
 20
4.748898029327392
 30
0.0
 41
0.25
 10
5.884068965911865
 20
4.800506114959716
 30
0.0
 41
0.25
 10
5.859973907470703
 20
4.756330966949462
 30
0.0
 41
0.25
  0
SPLINE
  5
69F
330
A1
100
AcDbEntity
 67
     1
  8
Default
  6
DASHED
 62
     7
440
 33554687
 48
0.25
370
    35
100
AcDbSpline
210
0.0
220
0.0
230
1.0
 70
    12
 71
     3
 72
     8
 73
     4
 74
     0
 42
0.000000001
 43
0.0000000001
 40
0.0
 40
0.0
 40
0.0
 40
0.0
 40
1.0
 40
1.0
 40
1.0
 40
1.0
 10
5.859973907470703
 20
4.756330966949462
 30
0.0
 41
0.25
 10
5.848877906799316
 20
4.735987901687622
 30
0.0
 41
0.25
 10
5.922293186187744
 20
4.692112922668457
 30
0.0
 41
0.25
 10
5.942615985870361
 20
4.641904115676879
 30
0.0
 41
0.25
  0
SPLINE
  5
6A0
330
A1
100
AcDbEntity
 67
     1
  8
Default
  6
DASHED
 62
     7
440
 33554687
 48
0.25
370
    35
100
AcDbSpline
210
0.0
220
0.0
230
1.0
 70
    12
 71
     3
 72
     8
 73
     4
 74
     0
 42
0.000000001
 43
0.0000000001
 40
0.0
 40
0.0
 40
0.0
 40
0.0
 40
1.0
 40
1.0
 40
1.0
 40
1.0
 10
5.942615985870361
 20
4.641904115676879
 30
0.0
 41
0.25
 10
5.964230060577392
 20
4.588505029678344
 30
0.0
 41
0.25
 10
5.995851993560791
 20
4.539737939834594
 30
0.0
 41
0.25
 10
5.968042850494384
 20
4.489335060119628
 30
0.0
 41
0.25
  0
SPLINE
  5
6A1
330
A1
100
AcDbEntity
 67
     1
  8
Default
  6
DASHED
 62
     7
440
 33554687
 48
0.25
370
    35
100
AcDbSpline
210
0.0
220
0.0
230
1.0
 70
    12
 71
     3
 72
     8
 73
     4
 74
     0
 42
0.000000001
 43
0.0000000001
 40
0.0
 40
0.0
 40
0.0
 40
0.0
 40
1.0
 40
1.0
 40
1.0
 40
1.0
 10
5.968042850494384
 20
4.489335060119628
 30
0.0
 41
0.25
 10
5.95176887512207
 20
4.459837913513183
 30
0.0
 41
0.25
 10
5.864529132843017
 20
4.494678020477294
 30
0.0
 41
0.25
 10
5.840902805328369
 20
4.457550048828125
 30
0.0
 41
0.25
  0
SPLINE
  5
6A2
330
A1
100
AcDbEntity
 67
     1
  8
Default
  6
DASHED
 62
     7
440
 33554687
 48
0.25
370
    35
100
AcDbSpline
210
0.0
220
0.0
230
1.0
 70
    12
 71
     3
 72
     8
 73
     4
 74
     0
 42
0.000000001
 43
0.0000000001
 40
0.0
 40
0.0
 40
0.0
 40
0.0
 40
1.0
 40
1.0
 40
1.0
 40
1.0
 10
5.840902805328369
 20
4.457550048828125
 30
0.0
 41
0.25
 10
5.827552795410156
 20
4.43657112121582
 30
0.0
 41
0.25
 10
5.879045009613037
 20
4.389301776885986
 30
0.0
 41
0.25
 10
5.879045009613037
 20
4.349480152130126
 30
0.0
 41
0.25
  0
SPLINE
  5
6A3
330
A1
100
AcDbEntity
 67
     1
  8
Default
  6
DASHED
 62
     7
440
 33554687
 48
0.25
370
    35
100
AcDbSpline
210
0.0
220
0.0
230
1.0
 70
    12
 71
     3
 72
     8
 73
     4
 74
     0
 42
0.000000001
 43
0.0000000001
 40
0.0
 40
0.0
 40
0.0
 40
0.0
 40
1.0
 40
1.0
 40
1.0
 40
1.0
 10
5.879045009613037
 20
4.349480152130126
 30
0.0
 41
0.25
 10
5.879045009613037
 20
4.307099819183349
 30
0.0
 41
0.25
 10
5.884716987609863
 20
4.280320167541503
 30
0.0
 41
0.25
 10
5.840902805328369
 20
4.266839027404785
 30
0.0
 41
0.25
  0
SPLINE
  5
6A4
330
A1
100
AcDbEntity
 67
     1
  8
Default
  6
DASHED
 62
     7
440
 33554687
 48
0.25
370
    35
100
AcDbSpline
210
0.0
220
0.0
230
1.0
 70
    12
 71
     3
 72
     8
 73
     4
 74
     0
 42
0.000000001
 43
0.0000000001
 40
0.0
 40
0.0
 40
0.0
 40
0.0
 40
1.0
 40
1.0
 40
1.0
 40
1.0
 10
5.840902805328369
 20
4.266839027404785
 30
0.0
 41
0.25
 10
5.82437515258789
 20
4.26175308227539
 30
0.0
 41
0.25
 10
5.75017499923706
 20
4.282845020294189
 30
0.0
 41
0.25
 10
5.713761806488037
 20
4.298624038696289
 30
0.0
 41
0.25
  0
SPLINE
  5
6A5
330
A1
100
AcDbEntity
 67
     1
  8
Default
  6
DASHED
 62
     7
440
 33554687
 48
0.25
370
    35
100
AcDbSpline
210
0.0
220
0.0
230
1.0
 70
    12
 71
     3
 72
     8
 73
     4
 74
     0
 42
0.000000001
 43
0.0000000001
 40
0.0
 40
0.0
 40
0.0
 40
0.0
 40
1.0
 40
1.0
 40
1.0
 40
1.0
 10
5.713761806488037
 20
4.298624038696289
 30
0.0
 41
0.25
 10
5.675620079040527
 20
4.315152168273925
 30
0.0
 41
0.25
 10
5.672113895416259
 20
4.357309818267822
 30
0.0
 41
0.25
 10
5.650190830230712
 20
4.349480152130126
 30
0.0
 41
0.25
  0
SPLINE
  5
6A6
330
A1
100
AcDbEntity
 67
     1
  8
Default
  6
DASHED
 62
     7
440
 33554687
 48
0.25
370
    35
100
AcDbSpline
210
0.0
220
0.0
230
1.0
 70
    12
 71
     3
 72
     8
 73
     4
 74
     0
 42
0.000000001
 43
0.0000000001
 40
0.0
 40
0.0
 40
0.0
 40
0.0
 40
1.0
 40
1.0
 40
1.0
 40
1.0
 10
5.650190830230712
 20
4.349480152130126
 30
0.0
 41
0.25
 10
5.638325214385986
 20
4.345242023468017
 30
0.0
 41
0.25
 10
5.645730972290039
 20
4.287806987762451
 30
0.0
 41
0.25
 10
5.624763011932373
 20
4.266839027404785
 30
0.0
 41
0.25
  0
SPLINE
  5
6A7
330
A1
100
AcDbEntity
 67
     1
  8
Default
  6
DASHED
 62
     7
440
 33554687
 48
0.25
370
    35
100
AcDbSpline
210
0.0
220
0.0
230
1.0
 70
    12
 71
     3
 72
     8
 73
     4
 74
     0
 42
0.000000001
 43
0.0000000001
 40
0.0
 40
0.0
 40
0.0
 40
0.0
 40
1.0
 40
1.0
 40
1.0
 40
1.0
 10
5.624763011932373
 20
4.266839027404785
 30
0.0
 41
0.25
 10
5.615862846374511
 20
4.257938861846923
 30
0.0
 41
0.25
 10
5.590619087219238
 20
4.250937938690185
 30
0.0
 41
0.25
 10
5.561192989349365
 20
4.260480880737304
 30
0.0
 41
0.25
  0
SPLINE
  5
6A8
330
A1
100
AcDbEntity
 67
     1
  8
Default
  6
DASHED
 62
     7
440
 33554687
 48
0.25
370
    35
100
AcDbSpline
210
0.0
220
0.0
230
1.0
 70
    12
 71
     3
 72
     8
 73
     4
 74
     0
 42
0.000000001
 43
0.0000000001
 40
0.0
 40
0.0
 40
0.0
 40
0.0
 40
1.0
 40
1.0
 40
1.0
 40
1.0
 10
5.561192989349365
 20
4.260480880737304
 30
0.0
 41
0.25
 10
5.50474214553833
 20
4.27878999710083
 30
0.0
 41
0.25
 10
5.442070960998535
 20
4.299356937408447
 30
0.0
 41
0.25
 10
5.389553070068359
 20
4.343122959136962
 30
0.0
 41
0.25
  0
SPLINE
  5
6A9
330
A1
100
AcDbEntity
 67
     1
  8
Default
  6
DASHED
 62
     7
440
 33554687
 48
0.25
370
    35
100
AcDbSpline
210
0.0
220
0.0
230
1.0
 70
    12
 71
     3
 72
     8
 73
     4
 74
     0
 42
0.000000001
 43
0.0000000001
 40
0.0
 40
0.0
 40
0.0
 40
0.0
 40
1.0
 40
1.0
 40
1.0
 40
1.0
 10
5.389553070068359
 20
4.343122959136962
 30
0.0
 41
0.25
 10
5.338696002960205
 20
4.385502815246582
 30
0.0
 41
0.25
 10
5.373778820037841
 20
4.432775020599365
 30
0.0
 41
0.25
 10
5.332338809967041
 20
4.45119285583496
 30
0.0
 41
0.25
  0
SPLINE
  5
6AA
330
A1
100
AcDbEntity
 67
     1
  8
Default
  6
DASHED
 62
     7
440
 33554687
 48
0.25
370
    35
100
AcDbSpline
210
0.0
220
0.0
230
1.0
 70
    12
 71
     3
 72
     8
 73
     4
 74
     0
 42
0.000000001
 43
0.0000000001
 40
0.0
 40
0.0
 40
0.0
 40
0.0
 40
1.0
 40
1.0
 40
1.0
 40
1.0
 10
5.332338809967041
 20
4.45119285583496
 30
0.0
 41
0.25
 10
5.309453010559082
 20
4.461363792419433
 30
0.0
 41
0.25
 10
5.264701843261718
 20
4.397910118103027
 30
0.0
 41
0.25
 10
5.217912197113037
 20
4.41940689086914
 30
0.0
 41
0.25
  0
SPLINE
  5
6AB
330
A1
100
AcDbEntity
 67
     1
  8
Default
  6
DASHED
 62
     7
440
 33554687
 48
0.25
370
    35
100
AcDbSpline
210
0.0
220
0.0
230
1.0
 70
    12
 71
     3
 72
     8
 73
     4
 74
     0
 42
0.000000001
 43
0.0000000001
 40
0.0
 40
0.0
 40
0.0
 40
0.0
 40
1.0
 40
1.0
 40
1.0
 40
1.0
 10
5.217912197113037
 20
4.41940689086914
 30
0.0
 41
0.25
 10
5.177589893341064
 20
4.437932968139648
 30
0.0
 41
0.25
 10
5.105527877807617
 20
4.492062091827392
 30
0.0
 41
0.25
 10
5.09712791442871
 20
4.559262990951538
 30
0.0
 41
0.25
  0
SPLINE
  5
6AC
330
A1
100
AcDbEntity
 67
     1
  8
Default
  6
DASHED
 62
     7
440
 33554687
 48
0.25
370
    35
100
AcDbSpline
210
0.0
220
0.0
230
1.0
 70
    12
 71
     3
 72
     8
 73
     4
 74
     0
 42
0.000000001
 43
0.0000000001
 40
0.0
 40
0.0
 40
0.0
 40
0.0
 40
1.0
 40
1.0
 40
1.0
 40
1.0
 10
5.09712791442871
 20
4.559262990951538
 30
0.0
 41
0.25
 10
5.088229179382324
 20
4.630460977554321
 30
0.0
 41
0.25
 10
5.124599933624267
 20
4.712860107421875
 30
0.0
 41
0.25
 10
5.173412799835205
 20
4.775402069091796
 30
0.0
 41
0.25
  0
SPLINE
  5
6AD
330
A1
100
AcDbEntity
 67
     1
  8
Default
  6
DASHED
 62
     7
440
 33554687
 48
0.25
370
    35
100
AcDbSpline
210
0.0
220
0.0
230
1.0
 70
    12
 71
     3
 72
     8
 73
     4
 74
     0
 42
0.000000001
 43
0.0000000001
 40
0.0
 40
0.0
 40
0.0
 40
0.0
 40
1.0
 40
1.0
 40
1.0
 40
1.0
 10
5.173412799835205
 20
4.775402069091796
 30
0.0
 41
0.25
 10
5.203927040100097
 20
4.814497947692871
 30
0.0
 41
0.25
 10
5.255167007446289
 20
4.80174708366394
 30
0.0
 41
0.25
 10
5.300553798675537
 20
4.81990098953247
 30
0.0
 41
0.25
  0
SPLINE
  5
6AE
330
A1
100
AcDbEntity
 67
     1
  8
Default
  6
DASHED
 62
     7
440
 33554687
 48
0.25
370
    35
100
AcDbSpline
210
0.0
220
0.0
230
1.0
 70
    12
 71
     3
 72
     8
 73
     4
 74
     0
 42
0.000000001
 43
0.0000000001
 40
0.0
 40
0.0
 40
0.0
 40
0.0
 40
1.0
 40
1.0
 40
1.0
 40
1.0
 10
5.300553798675537
 20
4.81990098953247
 30
0.0
 41
0.25
 10
5.321743965148925
 20
4.82837700843811
 30
0.0
 41
0.25
 10
5.341361045837402
 20
4.820426940917968
 30
0.0
 41
0.25
 10
5.332338809967041
 20
4.838972091674804
 30
0.0
 41
0.25
  0
SPLINE
  5
6AF
330
A1
100
AcDbEntity
 67
     1
  8
Default
  6
DASHED
 62
     7
440
 33554687
 48
0.25
370
    35
100
AcDbSpline
210
0.0
220
0.0
230
1.0
 70
    12
 71
     3
 72
     8
 73
     4
 74
     0
 42
0.000000001
 43
0.0000000001
 40
0.0
 40
0.0
 40
0.0
 40
0.0
 40
1.0
 40
1.0
 40
1.0
 40
1.0
 10
5.332338809967041
 20
4.838972091674804
 30
0.0
 41
0.25
 10
5.30373191833496
 20
4.897774934768676
 30
0.0
 41
0.25
 10
5.217362880706787
 20
4.963241100311279
 30
0.0
 41
0.25
 10
5.186127185821533
 20
5.0551118850708
 30
0.0
 41
0.25
  0
SPLINE
  5
6B0
330
A1
100
AcDbEntity
 67
     1
  8
Default
  6
DASHED
 62
     7
440
 33554687
 48
0.25
370
    35
100
AcDbSpline
210
0.0
220
0.0
230
1.0
 70
    12
 71
     3
 72
     8
 73
     4
 74
     0
 42
0.000000001
 43
0.0000000001
 40
0.0
 40
0.0
 40
0.0
 40
0.0
 40
1.0
 40
1.0
 40
1.0
 40
1.0
 10
5.186127185821533
 20
5.0551118850708
 30
0.0
 41
0.25
 10
5.162850856781005
 20
5.12357211112976
 30
0.0
 41
0.25
 10
5.199357032775878
 20
5.121530055999755
 30
0.0
 41
0.25
 10
5.224268913269042
 20
5.156825065612792
 30
0.0
 41
0.25
  0
SPLINE
  5
6B1
330
A1
100
AcDbEntity
 67
     1
  8
Default
  6
DASHED
 62
     7
440
 33554687
 48
0.25
370
    35
100
AcDbSpline
210
0.0
220
0.0
230
1.0
 70
    12
 71
     3
 72
     8
 73
     4
 74
     0
 42
0.000000001
 43
0.0000000001
 40
0.0
 40
0.0
 40
0.0
 40
0.0
 40
1.0
 40
1.0
 40
1.0
 40
1.0
 10
5.224268913269042
 20
5.156825065612792
 30
0.0
 41
0.25
 10
5.230371952056884
 20
5.165469884872436
 30
0.0
 41
0.25
 10
5.260315895080566
 20
5.152004957199096
 30
0.0
 41
0.25
 10
5.262412071228027
 20
5.163182020187377
 30
0.0
 41
0.25
  0
SPLINE
  5
6B2
330
A1
100
AcDbEntity
 67
     1
  8
Default
  6
DASHED
 62
     7
440
 33554687
 48
0.25
370
    35
100
AcDbSpline
210
0.0
220
0.0
230
1.0
 70
    12
 71
     3
 72
     8
 73
     4
 74
     0
 42
0.000000001
 43
0.0000000001
 40
0.0
 40
0.0
 40
0.0
 40
0.0
 40
1.0
 40
1.0
 40
1.0
 40
1.0
 10
5.262412071228027
 20
5.163182020187377
 30
0.0
 41
0.25
 10
5.266225814819335
 20
5.183523893356323
 30
0.0
 41
0.25
 10
5.226058006286621
 20
5.226632118225097
 30
0.0
 41
0.25
 10
5.243340015411376
 20
5.258538007736206
 30
0.0
 41
0.25
  0
SPLINE
  5
6B3
330
A1
100
AcDbEntity
 67
     1
  8
Default
  6
DASHED
 62
     7
440
 33554687
 48
0.25
370
    35
100
AcDbSpline
210
0.0
220
0.0
230
1.0
 70
    12
 71
     3
 72
     8
 73
     4
 74
     0
 42
0.000000001
 43
0.0000000001
 40
0.0
 40
0.0
 40
0.0
 40
0.0
 40
1.0
 40
1.0
 40
1.0
 40
1.0
 10
5.243340015411376
 20
5.258538007736206
 30
0.0
 41
0.25
 10
5.261704921722412
 20
5.292442083358764
 30
0.0
 41
0.25
 10
5.302672863006591
 20
5.29456090927124
 30
0.0
 41
0.25
 10
5.345053195953369
 20
5.315751075744628
 30
0.0
 41
0.25
  0
SPLINE
  5
6B4
330
A1
100
AcDbEntity
 67
     1
  8
Default
  6
DASHED
 62
     7
440
 33554687
 48
0.25
370
    35
100
AcDbSpline
210
0.0
220
0.0
230
1.0
 70
    12
 71
     3
 72
     8
 73
     4
 74
     0
 42
0.000000001
 43
0.0000000001
 40
0.0
 40
0.0
 40
0.0
 40
0.0
 40
1.0
 40
1.0
 40
1.0
 40
1.0
 10
5.345053195953369
 20
5.315751075744628
 30
0.0
 41
0.25
 10
5.353952884674072
 20
5.317022085189819
 30
0.0
 41
0.25
 10
5.36539602279663
 20
5.320836067199707
 30
0.0
 41
0.25
 10
5.370481014251708
 20
5.322108030319213
 30
0.0
 41
0.25
  0
LINE
  5
6B5
330
A1
100
AcDbEntity
 67
     1
  8
0
 60
     1
100
AcDbLine
 10
5.370481014251708
 20
5.322108030319213
 30
0.0
 11
5.351409912109375
 21
5.315751075744628
 31
0.0
  0
LINE
  5
6B6
330
A1
100
AcDbEntity
 67
     1
  8
Default
  6
DASHED
 62
   254
420
 13882323
440
 33554687
 48
0.25
370
    35
100
AcDbLine
 10
8.194091796875
 20
7.463740944862365
 30
0.0
 11
8.194091796875
 21
2.377302169799804
 31
0.0
  0
LINE
  5
6B7
330
A1
100
AcDbEntity
 67
     1
  8
0
 60
     1
100
AcDbLine
 10
8.194091796875
 20
2.377302169799804
 30
0.0
 11
8.194091796875
 21
7.463740944862365
 31
0.0
  0
DIMENSION
  5
6B8
330
A1
100
AcDbEntity
 67
     1
  8
Default
 48
0.5
100
AcDbDimension
280
     0
  2
*D14
 10
9.414030075073242
 20
7.66666692495346
 30
0.0
 11
8.779750823974609
 21
7.802283685654129
 31
0.0
 70
    32
  1
\fMontserrat|b0|i0|p0;\H0.666667x;\l24" O.C. MAX.\P
 71
     5
 42
1.268558502197265
 73
     0
 74
     0
 75
     0
  3
DS_0
100
AcDbAlignedDimension
 13
8.145471572875976
 23
7.453125
 33
0.0
 14
9.414030075073242
 24
7.453125
 34
0.0
100
AcDbRotatedDimension
1001
ACAD
1000
DSTYLE
1002
{
1070
   340
1005
CE
1070
    41
1040
0.104166679084301
1070
   173
1070
     1
1070
   177
1070
     7
1070
   176
1070
     7
1070
   372
1070
    15
1070
   371
1070
    15
1070
    77
1070
     1
1070
   174
1070
     1
1070
    73
1070
     0
1070
   147
1040
0.0700000002980232
1070
    44
1040
0.0700000002980232
1070
   140
1040
0.1
1070
   277
1070
     4
1070
   271
1070
     6
1070
    78
1070
     1
1070
   144
1040
1.0
1070
    42
1040
0.0
1002
}
  0
LINE
  5
6C5
330
A1
100
AcDbEntity
 67
     1
  8
Default
  6
DASHED
 62
   254
420
 13882323
440
 33554687
 48
0.25
370
    35
100
AcDbLine
 10
8.110951423645019
 20
7.46875
 30
0.0
 11
8.110951423645019
 21
2.366885185241699
 31
0.0
  0
LINE
  5
6C6
330
A1
100
AcDbEntity
 67
     1
  8
0
 60
     1
100
AcDbLine
 10
8.110951423645019
 20
2.366885185241699
 30
0.0
 11
8.110951423645019
 21
7.46875
 31
0.0
  0
DIMENSION
  5
6C7
330
A1
100
AcDbEntity
 67
     1
  8
Default
 48
0.5
100
AcDbDimension
280
     0
  2
*D15
 10
4.666694164276123
 20
6.152798891067504
 30
0.0
 11
4.666694164276123
 21
6.311808466911315
 31
0.0
 70
    32
  1
\fMontserrat|b0|i0|p0;\H0.666667x;\l6" MIN. (TYP.)\P
 71
     5
 42
0.3180191516876221
 73
     0
 74
     0
 75
     0
  3
DS_0
100
AcDbAlignedDimension
 13
4.437560081481933
 23
6.470818042755126
 33
0.0
 14
4.437560081481933
 24
6.152798891067504
 34
0.0
 50
-90.0
100
AcDbRotatedDimension
1001
ACAD
1000
DSTYLE
1002
{
1070
   340
1005
CE
1070
    41
1040
0.104166679084301
1070
   173
1070
     1
1070
   177
1070
     7
1070
   176
1070
     7
1070
   372
1070
    15
1070
   371
1070
    15
1070
    77
1070
     0
1070
   174
1070
     1
1070
    73
1070
     0
1070
   147
1040
0.0700000002980232
1070
    44
1040
0.0700000002980232
1070
   140
1040
0.1
1070
   277
1070
     4
1070
   271
1070
     6
1070
    78
1070
     1
1070
   144
1040
1.0
1070
    42
1040
0.0
1002
}
  0
DIMENSION
  5
6D5
330
A1
100
AcDbEntity
 67
     1
  8
Default
 48
0.5
100
AcDbDimension
280
     0
  2
*D16
 10
9.166693687438964
 20
3.293499946594238
 30
0.0
 11
9.166693687438964
 21
3.45234990119934
 31
0.0
 70
    32
  1
\fMontserrat|b0|i0|p0;\H0.666667x;\l6" MIN. (TYP.)\P
 71
     5
 42
0.3176999092102051
 73
     0
 74
     0
 75
     0
  3
DS_0
100
AcDbAlignedDimension
 13
9.376067161560058
 23
3.611199855804443
 33
0.0
 14
9.376067161560058
 24
3.293499946594238
 34
0.0
 50
-90.0
100
AcDbRotatedDimension
1001
ACAD
1000
DSTYLE
1002
{
1070
   340
1005
CE
1070
    41
1040
0.104166679084301
1070
   173
1070
     1
1070
   177
1070
     7
1070
   176
1070
     7
1070
   372
1070
    15
1070
   371
1070
    15
1070
    77
1070
     0
1070
   174
1070
     1
1070
    73
1070
     0
1070
   147
1040
0.0700000002980232
1070
    44
1040
0.0700000002980232
1070
   140
1040
0.1
1070
   277
1070
     4
1070
   271
1070
     6
1070
    78
1070
     1
1070
   144
1040
1.0
1070
    42
1040
0.125
1002
}
  0
LINE
  5
6E3
330
A1
100
AcDbEntity
 67
     1
  8
Default
 62
     7
440
 33554687
370
    35
100
AcDbLine
 10
9.994793891906738
 20
7.453125
 30
0.0
 11
9.99858283996582
 21
5.135416030883789
 31
0.0
  0
LINE
  5
6E4
330
A1
100
AcDbEntity
 67
     1
  8
0
 60
     1
100
AcDbLine
 10
9.99858283996582
 20
5.135416030883789
 30
0.0
 11
9.994793891906738
 21
7.453125
 31
0.0
  0
LINE
  5
6E5
330
A1
100
AcDbEntity
 67
     1
  8
Default
 62
     7
440
 33554687
370
    35
100
AcDbLine
 10
10.16524982452392
 20
5.135416030883789
 30
0.0
 11
9.831916809082031
 21
4.96875
 31
0.0
  0
LINE
  5
6E6
330
A1
100
AcDbEntity
 67
     1
  8
0
 60
     1
100
AcDbLine
 10
9.831916809082031
 20
4.96875
 30
0.0
 11
10.16524982452392
 21
5.135416030883789
 31
0.0
  0
LINE
  5
6E7
330
A1
100
AcDbEntity
 67
     1
  8
Default
 62
     7
440
 33554687
370
    35
100
AcDbLine
 10
9.99858283996582
 20
5.135416030883789
 30
0.0
 11
10.16524982452392
 21
5.135416030883789
 31
0.0
  0
LINE
  5
6E8
330
A1
100
AcDbEntity
 67
     1
  8
0
 60
     1
100
AcDbLine
 10
10.16524982452392
 20
5.135416030883789
 30
0.0
 11
9.99858283996582
 21
5.135416030883789
 31
0.0
  0
LINE
  5
6E9
330
A1
100
AcDbEntity
 67
     1
  8
Default
 62
     7
440
 33554687
370
    35
100
AcDbLine
 10
9.831916809082031
 20
4.96875
 30
0.0
 11
9.99858283996582
 21
4.96875
 31
0.0
  0
LINE
  5
6EA
330
A1
100
AcDbEntity
 67
     1
  8
0
 60
     1
100
AcDbLine
 10
9.99858283996582
 20
4.96875
 30
0.0
 11
9.831916809082031
 21
4.96875
 31
0.0
  0
LINE
  5
6EB
330
A1
100
AcDbEntity
 67
     1
  8
Default
 62
     7
440
 33554687
370
    35
100
AcDbLine
 10
9.99858283996582
 20
4.96875
 30
0.0
 11
9.994792938232421
 21
2.366885185241699
 31
0.0
  0
LINE
  5
6EC
330
A1
100
AcDbEntity
 67
     1
  8
0
 60
     1
100
AcDbLine
 10
9.994792938232421
 20
2.366885185241699
 30
0.0
 11
9.99858283996582
 21
4.96875
 31
0.0
  0
LINE
  5
6ED
330
A1
100
AcDbEntity
 67
     1
  8
Default
 62
     7
440
 33554687
370
    35
100
AcDbLine
 10
3.832448005676269
 20
7.453125
 30
0.0
 11
3.836236953735351
 21
5.135416984558105
 31
0.0
  0
LINE
  5
6EE
330
A1
100
AcDbEntity
 67
     1
  8
0
 60
     1
100
AcDbLine
 10
3.836236953735351
 20
5.135416984558105
 30
0.0
 11
3.832448005676269
 21
7.453125
 31
0.0
  0
LINE
  5
6EF
330
A1
100
AcDbEntity
 67
     1
  8
Default
 62
     7
440
 33554687
370
    35
100
AcDbLine
 10
4.002903938293457
 20
5.135416984558105
 30
0.0
 11
3.669570922851562
 21
4.96875
 31
0.0
  0
LINE
  5
6F0
330
A1
100
AcDbEntity
 67
     1
  8
0
 60
     1
100
AcDbLine
 10
3.669570922851562
 20
4.96875
 30
0.0
 11
4.002903938293457
 21
5.135416984558105
 31
0.0
  0
LINE
  5
6F1
330
A1
100
AcDbEntity
 67
     1
  8
Default
 62
     7
440
 33554687
370
    35
100
AcDbLine
 10
3.836236953735351
 20
5.135416984558105
 30
0.0
 11
4.002903938293457
 21
5.135416984558105
 31
0.0
  0
LINE
  5
6F2
330
A1
100
AcDbEntity
 67
     1
  8
0
 60
     1
100
AcDbLine
 10
4.002903938293457
 20
5.135416984558105
 30
0.0
 11
3.836236953735351
 21
5.135416984558105
 31
0.0
  0
LINE
  5
6F3
330
A1
100
AcDbEntity
 67
     1
  8
Default
 62
     7
440
 33554687
370
    35
100
AcDbLine
 10
3.669570922851562
 20
4.96875
 30
0.0
 11
3.836236953735351
 21
4.96875
 31
0.0
  0
LINE
  5
6F4
330
A1
100
AcDbEntity
 67
     1
  8
0
 60
     1
100
AcDbLine
 10
3.836236953735351
 20
4.96875
 30
0.0
 11
3.669570922851562
 21
4.96875
 31
0.0
  0
LINE
  5
6F5
330
A1
100
AcDbEntity
 67
     1
  8
Default
 62
     7
440
 33554687
370
    35
100
AcDbLine
 10
3.836236953735351
 20
4.96875
 30
0.0
 11
3.832447052001953
 21
2.366885185241699
 31
0.0
  0
LINE
  5
6F6
330
A1
100
AcDbEntity
 67
     1
  8
0
 60
     1
100
AcDbLine
 10
3.832447052001953
 20
2.366885185241699
 30
0.0
 11
3.836236953735351
 21
4.96875
 31
0.0
  0
LINE
  5
6F7
330
A1
100
AcDbEntity
 67
     1
  8
Default
 62
     7
440
 33554687
370
    35
100
AcDbLine
 10
3.828386068344116
 20
7.463740944862365
 30
0.0
 11
6.703465938568115
 21
7.463740944862365
 31
0.0
  0
LINE
  5
6F8
330
A1
100
AcDbEntity
 67
     1
  8
0
 60
     1
100
AcDbLine
 10
6.703465938568115
 20
7.463740944862365
 30
0.0
 11
3.828386068344116
 21
7.463740944862365
 31
0.0
  0
LINE
  5
6F9
330
A1
100
AcDbEntity
 67
     1
  8
Default
 62
     7
440
 33554687
370
    35
100
AcDbLine
 10
6.703465938568115
 20
7.463740944862365
 30
0.0
 11
6.703465938568115
 21
7.297075033187866
 31
0.0
  0
LINE
  5
6FA
330
A1
100
AcDbEntity
 67
     1
  8
0
 60
     1
100
AcDbLine
 10
6.703465938568115
 20
7.297075033187866
 30
0.0
 11
6.703465938568115
 21
7.463740944862365
 31
0.0
  0
LINE
  5
6FB
330
A1
100
AcDbEntity
 67
     1
  8
Default
 62
     7
440
 33554687
370
    35
100
AcDbLine
 10
6.870131969451904
 20
7.463740944862365
 30
0.0
 11
9.995049476623535
 21
7.463740944862365
 31
0.0
  0
LINE
  5
6FC
330
A1
100
AcDbEntity
 67
     1
  8
0
 60
     1
100
AcDbLine
 10
9.995049476623535
 20
7.463740944862365
 30
0.0
 11
6.870131969451904
 21
7.463740944862365
 31
0.0
  0
LINE
  5
6FD
330
A1
100
AcDbEntity
 67
     1
  8
Default
 62
     7
440
 33554687
370
    35
100
AcDbLine
 10
6.870131969451904
 20
7.630407810211181
 30
0.0
 11
6.870131969451904
 21
7.463740944862365
 31
0.0
  0
LINE
  5
6FE
330
A1
100
AcDbEntity
 67
     1
  8
0
 60
     1
100
AcDbLine
 10
6.870131969451904
 20
7.463740944862365
 30
0.0
 11
6.870131969451904
 21
7.630407810211181
 31
0.0
  0
LINE
  5
6FF
330
A1
100
AcDbEntity
 67
     1
  8
Default
 62
     7
440
 33554687
370
    35
100
AcDbLine
 10
6.703465938568115
 20
7.297075033187866
 30
0.0
 11
6.870131969451904
 21
7.630407810211181
 31
0.0
  0
LINE
  5
700
330
A1
100
AcDbEntity
 67
     1
  8
0
 60
     1
100
AcDbLine
 10
6.870131969451904
 20
7.630407810211181
 30
0.0
 11
6.703465938568115
 21
7.297075033187866
 31
0.0
  0
LINE
  5
701
330
A1
100
AcDbEntity
 67
     1
  8
Default
 62
     7
440
 33554687
370
    35
100
AcDbLine
 10
3.828130006790161
 20
2.361677169799804
 30
0.0
 11
6.703214168548583
 21
2.361677169799804
 31
0.0
  0
LINE
  5
702
330
A1
100
AcDbEntity
 67
     1
  8
0
 60
     1
100
AcDbLine
 10
6.703214168548583
 20
2.361677169799804
 30
0.0
 11
3.828130006790161
 21
2.361677169799804
 31
0.0
  0
LINE
  5
703
330
A1
100
AcDbEntity
 67
     1
  8
Default
 62
     7
440
 33554687
370
    35
100
AcDbLine
 10
6.703214168548583
 20
2.361677169799804
 30
0.0
 11
6.703214168548583
 21
2.195010185241699
 31
0.0
  0
LINE
  5
704
330
A1
100
AcDbEntity
 67
     1
  8
0
 60
     1
100
AcDbLine
 10
6.703214168548583
 20
2.195010185241699
 30
0.0
 11
6.703214168548583
 21
2.361677169799804
 31
0.0
  0
LINE
  5
705
330
A1
100
AcDbEntity
 67
     1
  8
Default
 62
     7
440
 33554687
370
    35
100
AcDbLine
 10
6.869878768920898
 20
2.361677169799804
 30
0.0
 11
9.994792938232421
 21
2.361677169799804
 31
0.0
  0
LINE
  5
706
330
A1
100
AcDbEntity
 67
     1
  8
0
 60
     1
100
AcDbLine
 10
9.994792938232421
 20
2.361677169799804
 30
0.0
 11
6.869878768920898
 21
2.361677169799804
 31
0.0
  0
LINE
  5
707
330
A1
100
AcDbEntity
 67
     1
  8
Default
 62
     7
440
 33554687
370
    35
100
AcDbLine
 10
6.869878768920898
 20
2.528343200683593
 30
0.0
 11
6.869878768920898
 21
2.361677169799804
 31
0.0
  0
LINE
  5
708
330
A1
100
AcDbEntity
 67
     1
  8
0
 60
     1
100
AcDbLine
 10
6.869878768920898
 20
2.361677169799804
 30
0.0
 11
6.869878768920898
 21
2.528343200683593
 31
0.0
  0
LINE
  5
709
330
A1
100
AcDbEntity
 67
     1
  8
Default
 62
     7
440
 33554687
370
    35
100
AcDbLine
 10
6.703214168548583
 20
2.195010185241699
 30
0.0
 11
6.869878768920898
 21
2.528343200683593
 31
0.0
  0
LINE
  5
70A
330
A1
100
AcDbEntity
 67
     1
  8
0
 60
     1
100
AcDbLine
 10
6.869878768920898
 20
2.528343200683593
 30
0.0
 11
6.703214168548583
 21
2.195010185241699
 31
0.0
  0
LINE
  5
70B
330
A1
100
AcDbEntity
 67
     1
  8
Default
  6
DASHED
 62
   254
420
 13882323
440
 33554687
 48
0.25
370
    35
100
AcDbLine
 10
6.83768081665039
 20
2.479572772979736
 30
0.0
 11
6.83768081665039
 21
7.565506279468536
 31
0.0
  0
LINE
  5
70C
330
A1
100
AcDbEntity
 67
     1
  8
0
 60
     1
100
AcDbLine
 10
6.83768081665039
 20
7.565506279468536
 30
0.0
 11
6.83768081665039
 21
2.479572772979736
 31
0.0
  0
LINE
  5
70D
330
A1
100
AcDbEntity
 67
     1
  8
Default
  6
DASHED
 62
   254
420
 13882323
440
 33554687
 48
0.25
370
    35
100
AcDbLine
 10
6.911459922790527
 20
7.453125
 30
0.0
 11
6.911459922790527
 21
2.366885185241699
 31
0.0
  0
LINE
  5
70E
330
A1
100
AcDbEntity
 67
     1
  8
0
 60
     1
100
AcDbLine
 10
6.911459922790527
 20
2.366885185241699
 30
0.0
 11
6.911459922790527
 21
7.453125
 31
0.0
  0
LINE
  5
70F
330
A1
100
AcDbEntity
 67
     1
  8
Default
  6
DASHED
 62
   254
420
 13882323
440
 33554687
 48
0.25
370
    35
100
AcDbLine
 10
5.655648231506347
 20
2.361677169799804
 30
0.0
 11
5.655648231506347
 21
7.463740944862365
 31
0.0
  0
LINE
  5
710
330
A1
100
AcDbEntity
 67
     1
  8
0
 60
     1
100
AcDbLine
 10
5.655648231506347
 20
7.463740944862365
 30
0.0
 11
5.655648231506347
 21
2.361677169799804
 31
0.0
  0
LINE
  5
711
330
A1
100
AcDbEntity
 67
     1
  8
Default
  6
DASHED
 62
   254
420
 13882323
440
 33554687
 48
0.25
370
    35
100
AcDbLine
 10
5.563292980194091
 20
2.361677169799804
 30
0.0
 11
5.563292980194091
 21
7.463740944862365
 31
0.0
  0
LINE
  5
712
330
A1
100
AcDbEntity
 67
     1
  8
0
 60
     1
100
AcDbLine
 10
5.563292980194091
 20
7.463740944862365
 30
0.0
 11
5.563292980194091
 21
2.361677169799804
 31
0.0
  0
LINE
  5
713
330
A1
100
AcDbEntity
 67
     1
  8
Default
  6
DASHED
 62
   254
420
 13882323
440
 33554687
 48
0.25
370
    35
100
AcDbLine
 10
9.463349342346191
 20
7.463740944862365
 30
0.0
 11
9.463349342346191
 21
2.361677169799804
 31
0.0
  0
LINE
  5
714
330
A1
100
AcDbEntity
 67
     1
  8
0
 60
     1
100
AcDbLine
 10
9.463349342346191
 20
2.361677169799804
 30
0.0
 11
9.463349342346191
 21
7.463740944862365
 31
0.0
  0
LINE
  5
715
330
A1
100
AcDbEntity
 67
     1
  8
Default
  6
DASHED
 62
   254
420
 13882323
440
 33554687
 48
0.25
370
    35
100
AcDbLine
 10
9.372046470642089
 20
2.361677169799804
 30
0.0
 11
9.372046470642089
 21
7.463740944862365
 31
0.0
  0
LINE
  5
716
330
A1
100
AcDbEntity
 67
     1
  8
0
 60
     1
100
AcDbLine
 10
9.372046470642089
 20
7.463740944862365
 30
0.0
 11
9.372046470642089
 21
2.361677169799804
 31
0.0
  0
LINE
  5
717
330
A1
100
AcDbEntity
 67
     1
  8
Default
  6
DASHED
 62
   254
420
 13882323
440
 33554687
 48
0.25
370
    35
100
AcDbLine
 10
9.376067161560058
 20
3.293499946594238
 30
0.0
 11
9.298582077026367
 21
3.293499946594238
 31
0.0
  0
LINE
  5
718
330
A1
100
AcDbEntity
 67
     1
  8
0
 60
     1
100
AcDbLine
 10
9.298582077026367
 20
3.293499946594238
 30
0.0
 11
9.376067161560058
 21
3.293499946594238
 31
0.0
  0
LINE
  5
719
330
A1
100
AcDbEntity
 67
     1
  8
Default
  6
DASHED
 62
     7
440
 33554687
 48
0.25
370
    35
100
AcDbLine
 10
9.298582077026367
 20
3.293499946594238
 30
0.0
 11
9.298582077026367
 21
6.475791931152343
 31
0.0
  0
LINE
  5
71A
330
A1
100
AcDbEntity
 67
     1
  8
Default
  6
DASHED
 62
     7
440
 33554687
 48
0.25
370
    35
100
AcDbLine
 10
9.298582077026367
 20
6.475791931152343
 30
0.0
 11
9.372046470642089
 21
6.475791931152343
 31
0.0
  0
LINE
  5
71B
330
A1
100
AcDbEntity
 67
     1
  8
Default
  6
DASHED
 62
     7
440
 33554687
 48
0.25
370
    35
100
AcDbLine
 10
9.372046470642089
 20
6.475791931152343
 30
0.0
 11
9.372046470642089
 21
3.293499946594238
 31
0.0
  0
LINE
  5
71C
330
A1
100
AcDbEntity
 67
     1
  8
Default
  6
DASHED
 62
     7
440
 33554687
 48
0.25
370
    35
100
AcDbLine
 10
9.372046470642089
 20
3.293499946594238
 30
0.0
 11
9.298582077026367
 21
3.293499946594238
 31
0.0
  0
LINE
  5
71D
330
A1
100
AcDbEntity
 67
     1
  8
Default
  6
DASHED
 62
   254
420
 13882323
440
 33554687
 48
0.25
370
    35
100
AcDbLine
 10
4.289894104003906
 20
7.463740944862365
 30
0.0
 11
4.289894104003906
 21
2.361677169799804
 31
0.0
  0
LINE
  5
71E
330
A1
100
AcDbEntity
 67
     1
  8
0
 60
     1
100
AcDbLine
 10
4.289894104003906
 20
2.361677169799804
 30
0.0
 11
4.289894104003906
 21
7.463740944862365
 31
0.0
  0
LINE
  5
71F
330
A1
100
AcDbEntity
 67
     1
  8
Default
  6
DASHED
 62
   254
420
 13882323
440
 33554687
 48
0.25
370
    35
100
AcDbLine
 10
4.37584114074707
 20
2.361677169799804
 30
0.0
 11
4.37584114074707
 21
7.463740944862365
 31
0.0
  0
LINE
  5
720
330
A1
100
AcDbEntity
 67
     1
  8
0
 60
     1
100
AcDbLine
 10
4.37584114074707
 20
7.463740944862365
 30
0.0
 11
4.37584114074707
 21
2.361677169799804
 31
0.0
  0
LINE
  5
721
330
A1
100
AcDbEntity
 67
     1
  8
Default
  6
DASHED
 62
     7
440
 33554687
 48
0.25
370
    35
100
AcDbLine
 10
4.37584114074707
 20
6.423943042755126
 30
0.0
 11
4.453185081481933
 21
6.423943042755126
 31
0.0
  0
LINE
  5
722
330
A1
100
AcDbEntity
 67
     1
  8
Default
  6
DASHED
 62
     7
440
 33554687
 48
0.25
370
    35
100
AcDbLine
 10
4.453185081481933
 20
6.423943042755126
 30
0.0
 11
4.453185081481933
 21
3.241651058197021
 31
0.0
  0
LINE
  5
723
330
A1
100
AcDbEntity
 67
     1
  8
Default
  6
DASHED
 62
     7
440
 33554687
 48
0.25
370
    35
100
AcDbLine
 10
4.453185081481933
 20
3.241651058197021
 30
0.0
 11
4.37584114074707
 21
3.241651058197021
 31
0.0
  0
LINE
  5
724
330
A1
100
AcDbEntity
 67
     1
  8
Default
  6
DASHED
 62
     7
440
 33554687
 48
0.25
370
    35
100
AcDbLine
 10
4.37584114074707
 20
3.241651058197021
 30
0.0
 11
4.37584114074707
 21
6.423943042755126
 31
0.0
  0
INSERT
  5
729
330
A1
100
AcDbEntity
 67
     1
  8
0
100
AcDbBlockReference
  2
ANNO_4
 10
0.0
 20
0.0
 30
0.0
  0
LEADER
  5
72A
330
A1
100
AcDbEntity
 67
     1
  8
Default
 48
0.5
100
AcDbLeader
  3
Standard
 73
     2
 76
     3
 10
4.453185081481933
 20
6.423943042755126
 30
0.0
 10
4.284120082855224
 20
5.742707967758178
 30
0.0
 10
4.003117084503173
 20
5.742707967758178
 30
0.0
340
729
212
4.003117084503173
222
5.742707967758178
232
0.0
1001
ACAD
1000
DSTYLE
1002
{
1070
    41
1040
0.1874999925494194
1070
   341
1005
0
1070
   176
1070
     7
1070
   371
1070
    15
1002
}
  0
INSERT
  5
72F
330
A1
100
AcDbEntity
 67
     1
  8
0
100
AcDbBlockReference
  2
ANNO_5
 10
0.0
 20
0.0
 30
0.0
  0
LEADER
  5
730
330
A1
100
AcDbEntity
 67
     1
  8
Default
 48
0.5
100
AcDbLeader
  3
Standard
 73
     2
 76
     3
 10
4.4218430519104
 20
3.622145175933837
 30
0.0
 10
3.852765083312988
 20
2.949892044067382
 30
0.0
 10
3.653764009475708
 20
2.949892044067382
 30
0.0
340
72F
212
3.653764009475708
222
2.949892044067382
232
0.0
1001
ACAD
1000
DSTYLE
1002
{
1070
    41
1040
0.1874999925494194
1070
   341
1005
0
1070
   176
1070
     7
1070
   371
1070
    15
1002
}
  0
LINE
  5
731
330
A1
100
AcDbEntity
 67
     1
  8
Default
 62
     7
440
 33554687
370
    35
100
AcDbLine
 10
4.333734989166259
 20
3.611199855804443
 30
0.0
 11
9.416933059692382
 21
3.611199855804443
 31
0.0
  0
LINE
  5
732
330
A1
100
AcDbEntity
 67
     1
  8
Default
 62
     7
440
 33554687
370
    35
100
AcDbLine
 10
9.416933059692382
 20
3.611199855804443
 30
0.0
 11
9.416933059692382
 21
6.152798891067504
 31
0.0
  0
LINE
  5
733
330
A1
100
AcDbEntity
 67
     1
  8
Default
 62
     7
440
 33554687
370
    35
100
AcDbLine
 10
9.416933059692382
 20
6.152798891067504
 30
0.0
 11
4.333734989166259
 21
6.152798891067504
 31
0.0
  0
LINE
  5
734
330
A1
100
AcDbEntity
 67
     1
  8
Default
 62
     7
440
 33554687
370
    35
100
AcDbLine
 10
4.333734989166259
 20
6.152798891067504
 30
0.0
 11
4.333734989166259
 21
3.611199855804443
 31
0.0
  0
MTEXT
  5
735
330
A1
100
AcDbEntity
 67
     1
  8
Default
100
AcDbMText
 10
2.968148827552795
 20
0.375
 30
0.0
 40
0.1
 41
2.135308027267456
 46
1.520834445953369
 71
     8
 72
     1
  1
\fMontserrat|b0|i0|p0;\H0.500000x;\C7;\lFORTIFIED HOMETM  - HURRICANE (2020)\P\fMontserrat|b0|i0|p0;\H1.000000x;\C7;\lFORTIFIED HOMETM  - HIGH WIND (2020)\P\P
  7
Montserrat
 73
     1
 44
1.0
  0
TEXT
  5
736
330
A1
100
AcDbEntity
 67
     1
  8
Default
 62
     7
100
AcDbText
 10
2.213541746139526
 20
1.160807610672699
 30
0.0
 40
0.0754335224628449
  1
%%UAPPLICABLE STANDARDS:
  7
RockwellBold
 11
2.213541746139526
 21
1.135416984558105
 31
0.0
100
AcDbText
 73
     1
  0
IMAGE
  5
738
330
A1
100
AcDbEntity
 67
     1
  8
Images
160
               140
310
8C0000000100000084000000060000000500000000000000ABAADE3F00000000A8AADE3F000000000000000000000000ABAADE3F00000080A9AAF13F0000000000000000000000C0AAAAFB3F00000080A9AAF13F0000000000000000000000C0AAAAFB3F00000000A8AADE3F000000000000000000000000ABAADE3F000000
310
00A8AADE3F0000000000000000
100
AcDbRasterImage
 90
        0
 10
0.4791667461395264
 20
0.4791660308837891
 30
0.0
 11
0.0010137875101379
 21
0.0
 31
0.0
 12
0.0
 22
0.0010702046629501
 32
0.0
 13
1233.0
 23
584.0
340
737
 70
    15
280
     0
281
    50
282
    50
283
     0
290
     0
360
739
 71
     1
 91
        2
 14
-0.5
 24
-0.5
 14
1232.5
 24
583.4999999999999
  0
ENDSEC
  0
SECTION
  2
OBJECTS
  0
DICTIONARY
  5
C
330
0
100
AcDbDictionary
281
     1
  3
ACAD_CIP_PREVIOUS_PRODUCT_INFO
350
74B
  3
ACAD_COLOR
350
741
  3
ACAD_DETAILVIEWSTYLE
350
73E
  3
ACAD_GROUP
350
D
  3
ACAD_IMAGE_DICT
350
B5
  3
ACAD_IMAGE_VARS
350
9E
  3
ACAD_LAYOUT
350
1A
  3
ACAD_MATERIAL
350
43
  3
ACAD_MLEADERSTYLE
350
6B
  3
ACAD_MLINESTYLE
350
17
  3
ACAD_PLOTSETTINGS
350
19
  3
ACAD_PLOTSTYLENAME
350
E
  3
ACAD_SCALELIST
350
47
  3
ACAD_SECTIONVIEWSTYLE
350
73F
  3
ACAD_TABLESTYLE
350
69
  3
ACAD_VISUALSTYLE
350
2A
  3
ACDB_RECOMPOSE_DATA
350
932
  3
AcDbVariableDictionary
350
73A
  3
AcDsDecomposeData
350
938
  0
SUN
  5
6D
330
29
100
AcDbSun
 90
        1
290
     0
 63
     7
421
 16777215
 40
1.0
291
     1
 91
  2455826
 92
 54000000
292
     0
 70
     0
 71
   256
280
     1
1001
ACAD
1000
AcDbSavedByObjectVersion
1070
     0
  0
DICTIONARY
  5
752
330
2
100
AcDbDictionary
280
     1
281
     1
  3
ACAD_LAYERSTATES
360
753
  0
IMAGEDEF_REACTOR
  5
81B
330
81A
100
AcDbRasterImageDefReactor
 90
        2
330
81A
  0
IMAGEDEF_REACTOR
  5
89A
330
899
100
AcDbRasterImageDefReactor
 90
        2
330
899
  0
SUN
  5
A6
330
A5
100
AcDbSun
 90
        1
290
     0
 63
     7
421
 16777215
 40
1.0
291
     1
 91
  2455826
 92
 54000000
292
     0
 70
     0
 71
   256
280
     1
1001
ACAD
1000
AcDbSavedByObjectVersion
1070
     0
  0
IMAGEDEF_REACTOR
  5
B8
330
B7
100
AcDbRasterImageDefReactor
 90
        2
330
B7
  0
SUN
  5
D5
330
D2
100
AcDbSun
 90
        1
290
     0
 63
     7
421
 16777215
 40
1.0
291
     1
 91
  2455826
 92
 54000000
292
     0
 70
     0
 71
   256
280
     1
1001
ACAD
1000
AcDbSavedByObjectVersion
1070
     0
  0
IMAGEDEF_REACTOR
  5
739
330
738
100
AcDbRasterImageDefReactor
 90
        2
330
738
  0
XRECORD
  5
74B
102
{ACAD_REACTORS
330
C
102
}
330
C
100
AcDbXrecord
280
     1
300
ACD
300
2020
300
ACD_F_S_TL
  0
DICTIONARY
  5
741
102
{ACAD_REACTORS
330
C
102
}
330
C
100
AcDbDictionary
281
     1
  0
DICTIONARY
  5
73E
102
{ACAD_REACTORS
330
C
102
}
330
C
100
AcDbDictionary
281
     1
  3
Imperial24
350
743
  0
DICTIONARY
  5
D
102
{ACAD_REACTORS
330
C
102
}
330
C
100
AcDbDictionary
281
     1
  0
DICTIONARY
  5
B5
102
{ACAD_REACTORS
330
C
102
}
330
C
100
AcDbDictionary
281
     1
  3
F-RR-1.images\000.png
350
B6
  3
F-RR-1.images\001.png
350
737
  0
RASTERVARIABLES
  5
9E
102
{ACAD_REACTORS
330
C
102
}
330
C
100
AcDbRasterVariables
 90
        0
 70
     0
 71
     1
 72
     5
  0
DICTIONARY
  5
1A
102
{ACAD_REACTORS
330
C
102
}
330
C
100
AcDbDictionary
281
     1
  3
Model
350
22
  3
Page 3
350
A2
  0
DICTIONARY
  5
43
102
{ACAD_REACTORS
330
C
102
}
330
C
100
AcDbDictionary
281
     1
  3
ByBlock
350
45
  3
ByLayer
350
44
  3
Global
350
46
  0
DICTIONARY
  5
6B
102
{ACAD_REACTORS
330
C
102
}
330
C
100
AcDbDictionary
281
     1
  3
Standard
350
6C
  0
DICTIONARY
  5
17
102
{ACAD_REACTORS
330
C
102
}
330
C
100
AcDbDictionary
281
     1
  3
Standard
350
18
  0
DICTIONARY
  5
19
102
{ACAD_REACTORS
330
C
102
}
330
C
100
AcDbDictionary
281
     1
  0
ACDBDICTIONARYWDFLT
  5
E
102
{ACAD_REACTORS
330
C
102
}
330
C
100
AcDbDictionary
281
     1
  3
Normal
350
F
100
AcDbDictionaryWithDefault
340
F
  0
DICTIONARY
  5
47
102
{ACAD_REACTORS
330
C
102
}
330
C
100
AcDbDictionary
281
     1
  3
A0
350
48
  3
A1
350
49
  3
A2
350
4A
  3
A3
350
4B
  3
A4
350
4C
  3
A5
350
4D
  3
A6
350
4E
  3
A7
350
4F
  3
A8
350
50
  3
A9
350
51
  3
B0
350
52
  3
B1
350
53
  3
B2
350
54
  3
B3
350
55
  3
B4
350
56
  3
B5
350
57
  3
B6
350
58
  3
B7
350
59
  3
B8
350
5A
  3
B9
350
5B
  3
C0
350
5C
  3
C1
350
5D
  3
C2
350
5E
  3
C3
350
5F
  3
C4
350
60
  3
C5
350
61
  3
C6
350
62
  3
C7
350
63
  3
C8
350
64
  3
C9
350
65
  3
D0
350
66
  3
D1
350
67
  3
D2
350
68
  0
DICTIONARY
  5
73F
102
{ACAD_REACTORS
330
C
102
}
330
C
100
AcDbDictionary
281
     1
  3
Imperial24
350
742
  0
DICTIONARY
  5
69
102
{ACAD_REACTORS
330
C
102
}
330
C
100
AcDbDictionary
281
     1
  3
Standard
350
6A
  0
DICTIONARY
  5
2A
102
{ACAD_REACTORS
330
C
102
}
330
C
100
AcDbDictionary
281
     1
  3
2dWireframe
350
2F
  3
Basic
350
32
  3
Brighten
350
36
  3
ColorChange
350
3A
  3
Conceptual
350
34
  3
Dim
350
35
  3
EdgeColorOff
350
3D
  3
Facepattern
350
39
  3
Flat
350
2B
  3
FlatWithEdges
350
2C
  3
Gouraud
350
2D
  3
GouraudWithEdges
350
2E
  3
Hidden
350
31
  3
JitterOff
350
3B
  3
Linepattern
350
38
  3
OverhangOff
350
3C
  3
Realistic
350
33
  3
Shaded
350
42
  3
Shaded with edges
350
41
  3
Shades of Gray
350
3E
  3
Sketchy
350
3F
  3
Thicken
350
37
  3
Wireframe
350
30
  3
X-Ray
350
40
  0
XRECORD
  5
932
102
{ACAD_REACTORS
330
C
102
}
330
C
100
AcDbXrecord
280
     1
 90
        1
330
6A
  0
DICTIONARY
  5
73A
102
{ACAD_REACTORS
330
C
102
}
330
C
100
AcDbDictionary
281
     1
  3
CANNOSCALE
350
73B
  3
CMLEADERSTYLE
350
73D
  3
CTABLESTYLE
350
73C
  3
CVIEWDETAILSTYLE
350
74C
  3
CVIEWSECTIONSTYLE
350
74D
  0
DICTIONARY
  5
938
102
{ACAD_REACTORS
330
C
102
}
330
C
100
AcDbDictionary
281
     1
  3
AcDsRecords
350
93A
  3
AcDsSchemas
350
939
1001
ACAD
1070
     2
  0
DICTIONARY
  5
753
102
{ACAD_REACTORS
330
752
102
}
330
752
100
AcDbDictionary
281
     1
  0
ACDBDETAILVIEWSTYLE
  5
743
102
{ACAD_XDICTIONARY
360
96D
102
}
102
{ACAD_REACTORS
330
73E
102
}
330
73E
100
AcDbModelDocViewStyle
 70
     0
  3
Imperial24
290
     0
100
AcDbDetailViewStyle
 70
     0
 71
     0
 90
        3
 71
     1
340
11
 62
   256
 40
0.24
340
0
 62
   256
 40
0.24
300

 40
0.36
280
     3
 71
     2
340
16
 90
       25
 62
   256
 71
     3
340
11
 62
   256
 40
0.24
 90
        1
 40
0.75
 90
        1
300
%<\AcVar ViewType \f "%tc1">% %<\AcVar ViewDetailId>%\PSCALE %<\AcVar ViewScale \f "%sn">%
 71
     4
340
16
 90
       25
 62
   256
340
16
 90
       25
 62
   256
280
     0
  0
IMAGEDEF
  5
B6
102
{ACAD_REACTORS
330
B5
330
B8
330
81B
102
}
330
B5
100
AcDbRasterImageDef
 90
        0
  1
F-RR-1.images\000.png
 10
575.0
 20
272.0
 11
0.0017391304347826
 21
0.0017391304347826
280
     1
281
     0
  0
IMAGEDEF
  5
737
102
{ACAD_REACTORS
330
B5
330
739
330
89A
102
}
330
B5
100
AcDbRasterImageDef
 90
        0
  1
F-RR-1.images\001.png
 10
1233.0
 20
584.0
 11
0.0008110300081103
 21
0.0008110300081103
280
     1
281
     0
  0
LAYOUT
  5
22
102
{ACAD_REACTORS
330
1A
102
}
330
1A
100
AcDbPlotSettings
  1

  2
none_device
  4
Letter_(8.50_x_11.00_Inches)
  6

 40
6.349999999999999
 41
6.349999999999999
 42
6.350005079999999
 43
6.350005079999999
 44
215.9
 45
279.4
 46
0.0
 47
0.0
 48
0.0
 49
0.0
140
0.0
141
0.0
142
1.0
143
1.0
 70
  1712
 72
     0
 73
     0
 74
     0
  7

 75
     0
147
1.0
 76
     0
 77
     2
 78
   300
148
0.0
149
0.0
100
AcDbLayout
  1
Model
 70
     1
 71
     0
 10
0.0
 20
0.0
 11
12.0
 21
9.0
 12
0.0
 22
0.0
 32
0.0
 14
1.000000000000000E+20
 24
1.000000000000000E+20
 34
1.000000000000000E+20
 15
-1.000000000000000E+20
 25
-1.000000000000000E+20
 35
-1.000000000000000E+20
146
0.0
 13
0.0
 23
0.0
 33
0.0
 16
1.0
 26
0.0
 36
0.0
 17
0.0
 27
1.0
 37
0.0
 76
     0
330
1F
331
29
  0
LAYOUT
  5
A2
102
{ACAD_REACTORS
330
1A
102
}
330
1A
100
AcDbPlotSettings
  1

  2
none_device
  4
ANSI_A_(11.00_x_8.50_Inches)
  6

 40
6.349999999999999
 41
19.05
 42
6.350005079999999
 43
19.05000254
 44
279.4
 45
215.9
 46
-6.349999999999999
 47
-19.05
 48
0.0
 49
0.0
140
0.0
141
0.0
142
1.0
143
1.0
 70
   688
 72
     0
 73
     0
 74
     5
  7

 75
    16
147
1.0
 76
     0
 77
     2
 78
   300
148
0.0
149
0.0
100
AcDbLayout
  1
Page 3
 70
     1
 71
     1
 10
-0.25
 20
-0.25
 11
10.75
 21
8.25
 12
0.0
 22
0.0
 32
0.0
 14
-502.251953125
 24
0.1666660308837891
 34
0.0
 15
10.83333396911621
 25
8.333333328366279
 35
0.0
146
0.0
 13
0.0
 23
0.0
 33
0.0
 16
1.0
 26
0.0
 36
0.0
 17
0.0
 27
1.0
 37
0.0
 76
     0
330
A1
331
A5
  0
MATERIAL
  5
45
102
{ACAD_REACTORS
330
43
102
}
330
43
100
AcDbMaterial
  1
ByBlock
 73
     1
 78
     1
172
     1
176
     1
270
     1
274
     1
  0
MATERIAL
  5
44
102
{ACAD_REACTORS
330
43
102
}
330
43
100
AcDbMaterial
  1
ByLayer
 73
     1
 78
     1
172
     1
176
     1
270
     1
274
     1
  0
MATERIAL
  5
46
102
{ACAD_REACTORS
330
43
102
}
330
43
100
AcDbMaterial
  1
Global
 73
     1
 78
     1
172
     1
176
     1
270
     1
274
     1
  0
MLEADERSTYLE
  5
6C
102
{ACAD_REACTORS
330
6B
102
}
330
6B
100
AcDbMLeaderStyle
179
     2
170
     2
171
     1
172
     0
 90
        2
 40
0.0
 41
0.0
173
     1
 91
-1056964608
340
14
 92
       -2
290
     1
 42
0.09
291
     1
 43
0.36
  3
Standard
 44
0.18
300

342
11
174
     1
178
     6
175
     1
176
     0
 93
-1056964608
 45
0.18
292
     0
297
     0
 46
0.18
 94
-1056964608
 47
1.0
 49
1.0
140
1.0
293
     1
141
0.0
294
     1
177
     0
142
1.0
295
     0
296
     0
143
0.125
271
     0
272
     9
273
     9
  0
MLINESTYLE
  5
18
102
{ACAD_REACTORS
330
17
102
}
330
17
100
AcDbMlineStyle
  2
STANDARD
 70
     0
  3

 62
   256
 51
90.0
 52
90.0
 71
     2
 49
0.5
 62
   256
  6
BYLAYER
 49
-0.5
 62
   256
  6
BYLAYER
  0
ACDBPLACEHOLDER
  5
F
102
{ACAD_REACTORS
330
E
102
}
330
E
  0
SCALE
  5
48
102
{ACAD_REACTORS
330
47
102
}
330
47
100
AcDbScale
 70
     0
300
1:1
140
1.0
141
1.0
290
     1
  0
SCALE
  5
49
102
{ACAD_REACTORS
330
47
102
}
330
47
100
AcDbScale
 70
     0
300
1:2
140
1.0
141
2.0
290
     0
  0
SCALE
  5
4A
102
{ACAD_REACTORS
330
47
102
}
330
47
100
AcDbScale
 70
     0
300
1:4
140
1.0
141
4.0
290
     0
  0
SCALE
  5
4B
102
{ACAD_REACTORS
330
47
102
}
330
47
100
AcDbScale
 70
     0
300
1:5
140
1.0
141
5.0
290
     0
  0
SCALE
  5
4C
102
{ACAD_REACTORS
330
47
102
}
330
47
100
AcDbScale
 70
     0
300
1:8
140
1.0
141
8.0
290
     0
  0
SCALE
  5
4D
102
{ACAD_REACTORS
330
47
102
}
330
47
100
AcDbScale
 70
     0
300
1:10
140
1.0
141
10.0
290
     0
  0
SCALE
  5
4E
102
{ACAD_REACTORS
330
47
102
}
330
47
100
AcDbScale
 70
     0
300
1:16
140
1.0
141
16.0
290
     0
  0
SCALE
  5
4F
102
{ACAD_REACTORS
330
47
102
}
330
47
100
AcDbScale
 70
     0
300
1:20
140
1.0
141
20.0
290
     0
  0
SCALE
  5
50
102
{ACAD_REACTORS
330
47
102
}
330
47
100
AcDbScale
 70
     0
300
1:30
140
1.0
141
30.0
290
     0
  0
SCALE
  5
51
102
{ACAD_REACTORS
330
47
102
}
330
47
100
AcDbScale
 70
     0
300
1:40
140
1.0
141
40.0
290
     0
  0
SCALE
  5
52
102
{ACAD_REACTORS
330
47
102
}
330
47
100
AcDbScale
 70
     0
300
1:50
140
1.0
141
50.0
290
     0
  0
SCALE
  5
53
102
{ACAD_REACTORS
330
47
102
}
330
47
100
AcDbScale
 70
     0
300
1:100
140
1.0
141
100.0
290
     0
  0
SCALE
  5
54
102
{ACAD_REACTORS
330
47
102
}
330
47
100
AcDbScale
 70
     0
300
2:1
140
2.0
141
1.0
290
     0
  0
SCALE
  5
55
102
{ACAD_REACTORS
330
47
102
}
330
47
100
AcDbScale
 70
     0
300
4:1
140
4.0
141
1.0
290
     0
  0
SCALE
  5
56
102
{ACAD_REACTORS
330
47
102
}
330
47
100
AcDbScale
 70
     0
300
8:1
140
8.0
141
1.0
290
     0
  0
SCALE
  5
57
102
{ACAD_REACTORS
330
47
102
}
330
47
100
AcDbScale
 70
     0
300
10:1
140
10.0
141
1.0
290
     0
  0
SCALE
  5
58
102
{ACAD_REACTORS
330
47
102
}
330
47
100
AcDbScale
 70
     0
300
100:1
140
100.0
141
1.0
290
     0
  0
SCALE
  5
59
102
{ACAD_REACTORS
330
47
102
}
330
47
100
AcDbScale
 70
     0
300
1/128" = 1'-0"
140
0.0078125
141
12.0
290
     0
  0
SCALE
  5
5A
102
{ACAD_REACTORS
330
47
102
}
330
47
100
AcDbScale
 70
     0
300
1/64" = 1'-0"
140
0.015625
141
12.0
290
     0
  0
SCALE
  5
5B
102
{ACAD_REACTORS
330
47
102
}
330
47
100
AcDbScale
 70
     0
300
1/32" = 1'-0"
140
0.03125
141
12.0
290
     0
  0
SCALE
  5
5C
102
{ACAD_REACTORS
330
47
102
}
330
47
100
AcDbScale
 70
     0
300
1/16" = 1'-0"
140
0.0625
141
12.0
290
     0
  0
SCALE
  5
5D
102
{ACAD_REACTORS
330
47
102
}
330
47
100
AcDbScale
 70
     0
300
3/32" = 1'-0"
140
0.09375
141
12.0
290
     0
  0
SCALE
  5
5E
102
{ACAD_REACTORS
330
47
102
}
330
47
100
AcDbScale
 70
     0
300
1/8" = 1'-0"
140
0.125
141
12.0
290
     0
  0
SCALE
  5
5F
102
{ACAD_REACTORS
330
47
102
}
330
47
100
AcDbScale
 70
     0
300
3/16" = 1'-0"
140
0.1875
141
12.0
290
     0
  0
SCALE
  5
60
102
{ACAD_REACTORS
330
47
102
}
330
47
100
AcDbScale
 70
     0
300
1/4" = 1'-0"
140
0.25
141
12.0
290
     0
  0
SCALE
  5
61
102
{ACAD_REACTORS
330
47
102
}
330
47
100
AcDbScale
 70
     0
300
3/8" = 1'-0"
140
0.375
141
12.0
290
     0
  0
SCALE
  5
62
102
{ACAD_REACTORS
330
47
102
}
330
47
100
AcDbScale
 70
     0
300
1/2" = 1'-0"
140
0.5
141
12.0
290
     0
  0
SCALE
  5
63
102
{ACAD_REACTORS
330
47
102
}
330
47
100
AcDbScale
 70
     0
300
3/4" = 1'-0"
140
0.75
141
12.0
290
     0
  0
SCALE
  5
64
102
{ACAD_REACTORS
330
47
102
}
330
47
100
AcDbScale
 70
     0
300
1" = 1'-0"
140
1.0
141
12.0
290
     0
  0
SCALE
  5
65
102
{ACAD_REACTORS
330
47
102
}
330
47
100
AcDbScale
 70
     0
300
1-1/2" = 1'-0"
140
1.5
141
12.0
290
     0
  0
SCALE
  5
66
102
{ACAD_REACTORS
330
47
102
}
330
47
100
AcDbScale
 70
     0
300
3" = 1'-0"
140
3.0
141
12.0
290
     0
  0
SCALE
  5
67
102
{ACAD_REACTORS
330
47
102
}
330
47
100
AcDbScale
 70
     0
300
6" = 1'-0"
140
6.0
141
12.0
290
     0
  0
SCALE
  5
68
102
{ACAD_REACTORS
330
47
102
}
330
47
100
AcDbScale
 70
     0
300
1'-0" = 1'-0"
140
12.0
141
12.0
290
     0
  0
ACDBSECTIONVIEWSTYLE
  5
742
102
{ACAD_XDICTIONARY
360
96B
102
}
102
{ACAD_REACTORS
330
73F
102
}
330
73F
100
AcDbModelDocViewStyle
 70
     0
  3
Imperial24
290
     0
100
AcDbSectionViewStyle
 70
     0
 71
     0
 90
       78
 71
     1
340
11
 62
   256
 40
0.24
340
0
340
0
 62
   256
 40
0.24
300
I, O, Q, S, X, Z
 40
0.48
 90
        3
 40
0.18
 90
        1
 71
     2
340
16
 90
       25
 62
   256
340
16
 90
       50
 62
   256
 40
0.24
 40
0.0
 40
0.24
 71
     3
340
11
 62
   256
 40
0.24
 90
        1
 40
0.75
 90
        1
300
%<\AcVar ViewType \f "%tc1">% %<\AcVar ViewSectionStartId>%-%<\AcVar ViewSectionEndId>%\PSCALE %<\AcVar ViewScale \f "%sn">%
 71
     4
 62
   256
 62
   257
300
ANSI31
 40
1.0
 90
        0
290
     0
290
     0
 90
        6
 40
0.0
 40
1.570796326794896
 40
0.2617993877991494
 40
1.308996938995747
 40
-0.2617993877991494
 40
1.832595714594046
  0
TABLESTYLE
  5
6A
102
{ACAD_XDICTIONARY
360
930
102
}
102
{ACAD_REACTORS
330
69
102
}
330
69
100
AcDbTableStyle
280
     0
  3
Standard
 70
     0
 71
     0
 40
0.06
 41
0.06
280
     0
281
     0
  7
Standard
140
0.18
170
     2
 62
     0
 63
     7
283
     0
 90
        4
 91
        0
  1

274
    -2
284
     1
 64
     0
275
    -2
285
     1
 65
     0
276
    -2
286
     1
 66
     0
277
    -2
287
     1
 67
     0
278
    -2
288
     1
 68
     0
279
    -2
289
     1
 69
     0
  7
Standard
140
0.25
170
     5
 62
     0
 63
     7
283
     0
 90
        4
 91
        0
  1

274
    -2
284
     1
 64
     0
275
    -2
285
     1
 65
     0
276
    -2
286
     1
 66
     0
277
    -2
287
     1
 67
     0
278
    -2
288
     1
 68
     0
279
    -2
289
     1
 69
     0
  7
Standard
140
0.18
170
     5
 62
     0
 63
     7
283
     0
 90
        4
 91
        0
  1

274
    -2
284
     1
 64
     0
275
    -2
285
     1
 65
     0
276
    -2
286
     1
 66
     0
277
    -2
287
     1
 67
     0
278
    -2
288
     1
 68
     0
279
    -2
289
     1
 69
     0
  0
VISUALSTYLE
  5
2F
102
{ACAD_XDICTIONARY
360
943
102
}
102
{ACAD_REACTORS
330
2A
102
}
330
2A
100
AcDbVisualStyle
  2
2dWireframe
 70
     4
177
     2
291
     0
 71
     0
176
     1
 72
     2
176
     1
 73
     0
176
     1
 90
        0
176
     1
 40
0.6
176
     1
 41
30.0
176
     1
 63
     7
421
 16777215
176
     1
 74
     1
176
     1
 91
        4
176
     1
 64
     7
176
     1
 65
   257
176
     1
 75
     1
176
     1
175
     1
176
     1
 42
1.0
176
     1
 92
        0
176
     1
 66
   257
176
     1
 43
1.0
176
     1
 76
     1
176
     1
 77
     6
176
     1
 78
     2
176
     1
 67
     7
176
     1
 79
     5
176
     1
170
     0
176
     1
171
     0
176
     1
290
     0
176
     1
 93
        1
176
     1
 44
0.0
176
     1
173
     0
176
     1
1001
ACAD
1000
AcDbSavedByObjectVersion
1070
     0
  0
VISUALSTYLE
  5
32
102
{ACAD_XDICTIONARY
360
949
102
}
102
{ACAD_REACTORS
330
2A
102
}
330
2A
100
AcDbVisualStyle
  2
Basic
 70
     7
177
     2
291
     1
 71
     1
176
     1
 72
     0
176
     1
 73
     1
176
     1
 90
        0
176
     1
 40
0.6
176
     1
 41
30.0
176
     1
 63
     7
421
 16777215
176
     1
 74
     0
176
     1
 91
        4
176
     1
 64
     7
176
     1
 65
   257
176
     1
 75
     1
176
     1
175
     1
176
     1
 42
1.0
176
     1
 92
        8
176
     1
 66
     7
176
     1
 43
1.0
176
     1
 76
     1
176
     1
 77
     6
176
     1
 78
     2
176
     1
 67
     7
176
     1
 79
     5
176
     1
170
     0
176
     1
171
     0
176
     1
290
     0
176
     1
 93
        1
176
     1
 44
0.0
176
     1
173
     0
176
     1
1001
ACAD
1000
AcDbSavedByObjectVersion
1070
     0
  0
VISUALSTYLE
  5
36
102
{ACAD_XDICTIONARY
360
951
102
}
102
{ACAD_REACTORS
330
2A
102
}
330
2A
100
AcDbVisualStyle
  2
Brighten
 70
    12
177
     2
291
     1
 71
     2
176
     1
 72
     2
176
     1
 73
     0
176
     1
 90
        0
176
     1
 40
0.6
176
     1
 41
30.0
176
     1
 63
     7
421
 16777215
176
     1
 74
     1
176
     1
 91
        4
176
     1
 64
     7
176
     1
 65
   257
176
     1
 75
     1
176
     1
175
     1
176
     1
 42
1.0
176
     1
 92
        8
176
     1
 66
     7
176
     1
 43
1.0
176
     1
 76
     1
176
     1
 77
     6
176
     1
 78
     2
176
     1
 67
     7
176
     1
 79
     5
176
     1
170
     0
176
     1
171
     0
176
     1
290
     0
176
     1
 93
        1
176
     1
 44
50.0
176
     1
173
     0
176
     1
1001
ACAD
1000
AcDbSavedByObjectVersion
1070
     0
  0
VISUALSTYLE
  5
3A
102
{ACAD_XDICTIONARY
360
959
102
}
102
{ACAD_REACTORS
330
2A
102
}
330
2A
100
AcDbVisualStyle
  2
ColorChange
 70
    16
177
     2
291
     1
 71
     2
176
     1
 72
     2
176
     1
 73
     3
176
     1
 90
        0
176
     1
 40
0.6
176
     1
 41
30.0
176
     1
 63
     8
421
  8421504
176
     1
 74
     1
176
     1
 91
        4
176
     1
 64
     7
176
     1
 65
   257
176
     1
 75
     1
176
     1
175
     1
176
     1
 42
1.0
176
     1
 92
        8
176
     1
 66
     8
424
  8421504
176
     1
 43
1.0
176
     1
 76
     1
176
     1
 77
     6
176
     1
 78
     2
176
     1
 67
     7
176
     1
 79
     5
176
     1
170
     0
176
     1
171
     0
176
     1
290
     0
176
     1
 93
        1
176
     1
 44
0.0
176
     1
173
     0
176
     1
1001
ACAD
1000
AcDbSavedByObjectVersion
1070
     0
  0
VISUALSTYLE
  5
34
102
{ACAD_XDICTIONARY
360
94D
102
}
102
{ACAD_REACTORS
330
2A
102
}
330
2A
100
AcDbVisualStyle
  2
Conceptual
 70
     9
177
     2
291
     0
 71
     3
176
     1
 72
     2
176
     1
 73
     0
176
     1
 90
        0
176
     1
 40
0.6
176
     1
 41
30.0
176
     1
 63
     7
421
 16777215
176
     1
 74
     2
176
     1
 91
        2
176
     1
 64
     7
176
     1
 65
   257
176
     1
 75
     1
176
     1
175
     1
176
     1
 42
179.0
176
     1
 92
        8
176
     1
 66
     7
176
     1
 43
1.0
176
     1
 76
     1
176
     1
 77
     6
176
     1
 78
     2
176
     1
 67
     7
176
     1
 79
     3
176
     1
170
     0
176
     1
171
     0
176
     1
290
     0
176
     1
 93
        1
176
     1
 44
0.0
176
     1
173
     0
176
     1
1001
ACAD
1000
AcDbSavedByObjectVersion
1070
     0
  0
VISUALSTYLE
  5
35
102
{ACAD_XDICTIONARY
360
94F
102
}
102
{ACAD_REACTORS
330
2A
102
}
330
2A
100
AcDbVisualStyle
  2
Dim
 70
    11
177
     2
291
     1
 71
     2
176
     1
 72
     2
176
     1
 73
     0
176
     1
 90
        0
176
     1
 40
0.6
176
     1
 41
30.0
176
     1
 63
     7
421
 16777215
176
     1
 74
     1
176
     1
 91
        4
176
     1
 64
     7
176
     1
 65
   257
176
     1
 75
     1
176
     1
175
     1
176
     1
 42
1.0
176
     1
 92
        8
176
     1
 66
     7
176
     1
 43
1.0
176
     1
 76
     1
176
     1
 77
     6
176
     1
 78
     2
176
     1
 67
     7
176
     1
 79
     5
176
     1
170
     0
176
     1
171
     0
176
     1
290
     0
176
     1
 93
        1
176
     1
 44
-50.0
176
     1
173
     0
176
     1
1001
ACAD
1000
AcDbSavedByObjectVersion
1070
     0
  0
VISUALSTYLE
  5
3D
102
{ACAD_XDICTIONARY
360
95F
102
}
102
{ACAD_REACTORS
330
2A
102
}
330
2A
100
AcDbVisualStyle
  2
EdgeColorOff
 70
    22
177
     2
291
     1
 71
     2
176
     0
 72
     2
176
     0
 73
     0
176
     0
 90
        0
176
     0
 40
0.6
176
     0
 41
30.0
176
     0
 63
     7
421
 16777215
176
     0
 74
     1
176
     0
 91
        4
176
     0
 64
     7
176
     0
 65
   257
176
     0
 75
     1
176
     0
175
     1
176
     0
 42
1.0
176
     0
 92
        8
176
     2
 66
     7
176
     0
 43
1.0
176
     0
 76
     1
176
     0
 77
     6
176
     0
 78
     2
176
     0
 67
     7
176
     0
 79
     5
176
     0
170
     0
176
     0
171
     0
176
     0
290
     0
176
     0
 93
        1
176
     0
 44
0.0
176
     0
173
     0
176
     0
1001
ACAD
1000
AcDbSavedByObjectVersion
1070
     0
  0
VISUALSTYLE
  5
39
102
{ACAD_XDICTIONARY
360
957
102
}
102
{ACAD_REACTORS
330
2A
102
}
330
2A
100
AcDbVisualStyle
  2
Facepattern
 70
    15
177
     2
291
     1
 71
     2
176
     1
 72
     2
176
     1
 73
     0
176
     1
 90
        0
176
     1
 40
0.6
176
     1
 41
30.0
176
     1
 63
     7
421
 16777215
176
     1
 74
     1
176
     1
 91
        4
176
     1
 64
     7
176
     1
 65
   257
176
     1
 75
     1
176
     1
175
     1
176
     1
 42
1.0
176
     1
 92
        8
176
     1
 66
     7
176
     1
 43
1.0
176
     1
 76
     1
176
     1
 77
     6
176
     1
 78
     2
176
     1
 67
     7
176
     1
 79
     5
176
     1
170
     0
176
     1
171
     0
176
     1
290
     0
176
     1
 93
        1
176
     1
 44
0.0
176
     1
173
     0
176
     1
1001
ACAD
1000
AcDbSavedByObjectVersion
1070
     0
  0
VISUALSTYLE
  5
2B
102
{ACAD_XDICTIONARY
360
93B
102
}
102
{ACAD_REACTORS
330
2A
102
}
330
2A
100
AcDbVisualStyle
  2
Flat
 70
     0
177
     2
291
     1
 71
     2
176
     1
 72
     1
176
     1
 73
     1
176
     1
 90
        2
176
     1
 40
0.6
176
     1
 41
30.0
176
     1
 63
     7
421
 16777215
176
     1
 74
     0
176
     1
 91
        0
176
     1
 64
     7
176
     1
 65
   257
176
     1
 75
     1
176
     1
175
     1
176
     1
 42
1.0
176
     1
 92
        8
176
     1
 66
     7
176
     1
 43
1.0
176
     1
 76
     1
176
     1
 77
     6
176
     1
 78
     2
176
     1
 67
     7
176
     1
 79
     5
176
     1
170
     0
176
     1
171
     0
176
     1
290
     0
176
     1
 93
       13
176
     1
 44
0.0
176
     1
173
     0
176
     1
1001
ACAD
1000
AcDbSavedByObjectVersion
1070
     0
  0
VISUALSTYLE
  5
2C
102
{ACAD_XDICTIONARY
360
93D
102
}
102
{ACAD_REACTORS
330
2A
102
}
330
2A
100
AcDbVisualStyle
  2
FlatWithEdges
 70
     1
177
     2
291
     1
 71
     2
176
     1
 72
     1
176
     1
 73
     1
176
     1
 90
        2
176
     1
 40
0.6
176
     1
 41
30.0
176
     1
 63
     7
421
 16777215
176
     1
 74
     1
176
     1
 91
        0
176
     1
 64
     7
176
     1
 65
   257
176
     1
 75
     1
176
     1
175
     1
176
     1
 42
1.0
176
     1
 92
        0
176
     1
 66
   257
176
     1
 43
1.0
176
     1
 76
     1
176
     1
 77
     6
176
     1
 78
     2
176
     1
 67
     7
176
     1
 79
     5
176
     1
170
     0
176
     1
171
     0
176
     1
290
     0
176
     1
 93
       13
176
     1
 44
0.0
176
     1
173
     0
176
     1
1001
ACAD
1000
AcDbSavedByObjectVersion
1070
     0
  0
VISUALSTYLE
  5
2D
102
{ACAD_XDICTIONARY
360
93F
102
}
102
{ACAD_REACTORS
330
2A
102
}
330
2A
100
AcDbVisualStyle
  2
Gouraud
 70
     2
177
     2
291
     1
 71
     2
176
     1
 72
     2
176
     1
 73
     1
176
     1
 90
        2
176
     1
 40
0.6
176
     1
 41
30.0
176
     1
 63
     7
421
 16777215
176
     1
 74
     0
176
     1
 91
        0
176
     1
 64
     7
176
     1
 65
   257
176
     1
 75
     1
176
     1
175
     1
176
     1
 42
1.0
176
     1
 92
        0
176
     1
 66
     7
176
     1
 43
1.0
176
     1
 76
     1
176
     1
 77
     6
176
     1
 78
     2
176
     1
 67
     7
176
     1
 79
     5
176
     1
170
     0
176
     1
171
     0
176
     1
290
     0
176
     1
 93
       13
176
     1
 44
0.0
176
     1
173
     0
176
     1
1001
ACAD
1000
AcDbSavedByObjectVersion
1070
     0
  0
VISUALSTYLE
  5
2E
102
{ACAD_XDICTIONARY
360
941
102
}
102
{ACAD_REACTORS
330
2A
102
}
330
2A
100
AcDbVisualStyle
  2
GouraudWithEdges
 70
     3
177
     2
291
     1
 71
     2
176
     1
 72
     2
176
     1
 73
     1
176
     1
 90
        2
176
     1
 40
0.6
176
     1
 41
30.0
176
     1
 63
     7
421
 16777215
176
     1
 74
     1
176
     1
 91
        0
176
     1
 64
     7
176
     1
 65
   257
176
     1
 75
     1
176
     1
175
     1
176
     1
 42
1.0
176
     1
 92
        0
176
     1
 66
   257
176
     1
 43
1.0
176
     1
 76
     1
176
     1
 77
     6
176
     1
 78
     2
176
     1
 67
     7
176
     1
 79
     5
176
     1
170
     0
176
     1
171
     0
176
     1
290
     0
176
     1
 93
       13
176
     1
 44
0.0
176
     1
173
     0
176
     1
1001
ACAD
1000
AcDbSavedByObjectVersion
1070
     0
  0
VISUALSTYLE
  5
31
102
{ACAD_XDICTIONARY
360
947
102
}
102
{ACAD_REACTORS
330
2A
102
}
330
2A
100
AcDbVisualStyle
  2
Hidden
 70
     6
177
     2
291
     0
 71
     1
176
     1
 72
     2
176
     1
 73
     2
176
     1
 90
        0
176
     1
 40
0.6
176
     1
 41
30.0
176
     1
 63
     7
421
 16777215
176
     1
 74
     2
176
     1
 91
        2
176
     1
 64
     7
176
     1
 65
   257
176
     1
 75
     2
176
     1
175
     1
176
     1
 42
40.0
176
     1
 92
        0
176
     1
 66
   257
176
     1
 43
1.0
176
     1
 76
     1
176
     1
 77
     6
176
     1
 78
     2
176
     1
 67
     7
176
     1
 79
     3
176
     1
170
     0
176
     1
171
     0
176
     1
290
     0
176
     1
 93
        1
176
     1
 44
0.0
176
     1
173
     0
176
     1
1001
ACAD
1000
AcDbSavedByObjectVersion
1070
     0
  0
VISUALSTYLE
  5
3B
102
{ACAD_XDICTIONARY
360
95B
102
}
102
{ACAD_REACTORS
330
2A
102
}
330
2A
100
AcDbVisualStyle
  2
JitterOff
 70
    20
177
     2
291
     1
 71
     2
176
     0
 72
     2
176
     0
 73
     0
176
     0
 90
        0
176
     0
 40
0.6
176
     0
 41
30.0
176
     0
 63
     7
421
 16777215
176
     0
 74
     1
176
     0
 91
        4
176
     0
 64
     7
176
     0
 65
   257
176
     0
 75
     1
176
     0
175
     1
176
     0
 42
1.0
176
     0
 92
       10
176
     2
 66
     7
176
     0
 43
1.0
176
     0
 76
     1
176
     0
 77
     6
176
     0
 78
     2
176
     0
 67
     7
176
     0
 79
     5
176
     0
170
     0
176
     0
171
     0
176
     0
290
     0
176
     0
 93
        1
176
     0
 44
0.0
176
     0
173
     0
176
     0
1001
ACAD
1000
AcDbSavedByObjectVersion
1070
     0
  0
VISUALSTYLE
  5
38
102
{ACAD_XDICTIONARY
360
955
102
}
102
{ACAD_REACTORS
330
2A
102
}
330
2A
100
AcDbVisualStyle
  2
Linepattern
 70
    14
177
     2
291
     1
 71
     2
176
     1
 72
     2
176
     1
 73
     0
176
     1
 90
        0
176
     1
 40
0.6
176
     1
 41
30.0
176
     1
 63
     7
421
 16777215
176
     1
 74
     1
176
     1
 91
        4
176
     1
 64
     7
176
     1
 65
   257
176
     1
 75
     7
176
     1
175
     7
176
     1
 42
1.0
176
     1
 92
        8
176
     1
 66
     7
176
     1
 43
1.0
176
     1
 76
     1
176
     1
 77
     6
176
     1
 78
     2
176
     1
 67
     7
176
     1
 79
     5
176
     1
170
     0
176
     1
171
     0
176
     1
290
     0
176
     1
 93
        1
176
     1
 44
0.0
176
     1
173
     0
176
     1
1001
ACAD
1000
AcDbSavedByObjectVersion
1070
     0
  0
VISUALSTYLE
  5
3C
102
{ACAD_XDICTIONARY
360
95D
102
}
102
{ACAD_REACTORS
330
2A
102
}
330
2A
100
AcDbVisualStyle
  2
OverhangOff
 70
    21
177
     2
291
     1
 71
     2
176
     0
 72
     2
176
     0
 73
     0
176
     0
 90
        0
176
     0
 40
0.6
176
     0
 41
30.0
176
     0
 63
     7
421
 16777215
176
     0
 74
     1
176
     0
 91
        4
176
     0
 64
     7
176
     0
 65
   257
176
     0
 75
     1
176
     0
175
     1
176
     0
 42
1.0
176
     0
 92
        9
176
     2
 66
     7
176
     0
 43
1.0
176
     0
 76
     1
176
     0
 77
     6
176
     0
 78
     2
176
     0
 67
     7
176
     0
 79
     5
176
     0
170
     0
176
     0
171
     0
176
     0
290
     0
176
     0
 93
        1
176
     0
 44
0.0
176
     0
173
     0
176
     0
1001
ACAD
1000
AcDbSavedByObjectVersion
1070
     0
  0
VISUALSTYLE
  5
33
102
{ACAD_XDICTIONARY
360
94B
102
}
102
{ACAD_REACTORS
330
2A
102
}
330
2A
100
AcDbVisualStyle
  2
Realistic
 70
     8
177
     2
291
     0
 71
     2
176
     1
 72
     3
176
     1
 73
     0
176
     1
 90
        2
176
     1
 40
0.6
176
     1
 41
30.0
176
     1
 63
     7
421
 16777215
176
     1
 74
     0
176
     1
 91
        0
176
     1
 64
     7
176
     1
 65
   257
176
     1
 75
     1
176
     1
175
     1
176
     1
 42
1.0
176
     1
 92
        8
176
     1
 66
   257
176
     1
 43
1.0
176
     1
 76
     1
176
     1
 77
     6
176
     1
 78
     2
176
     1
 67
     7
176
     1
 79
     3
176
     1
170
     0
176
     1
171
     0
176
     1
290
     0
176
     1
 93
       13
176
     1
 44
0.0
176
     1
173
     0
176
     1
1001
ACAD
1000
AcDbSavedByObjectVersion
1070
     0
  0
VISUALSTYLE
  5
42
102
{ACAD_XDICTIONARY
360
969
102
}
102
{ACAD_REACTORS
330
2A
102
}
330
2A
100
AcDbVisualStyle
  2
Shaded
 70
    27
177
     2
291
     0
 71
     2
176
     1
 72
     2
176
     1
 73
     1
176
     1
 90
        2
176
     1
 40
0.6
176
     1
 41
30.0
176
     1
 63
     7
421
 16777215
176
     1
 74
     0
176
     1
 91
        4
176
     1
 64
     7
176
     1
 65
   257
176
     1
 75
     1
176
     1
175
     1
176
     1
 42
1.0
176
     1
 92
        8
176
     1
 66
   257
176
     1
 43
1.0
176
     1
 76
     1
176
     1
 77
     6
176
     1
 78
     2
176
     1
 67
     8
425
  7895160
176
     1
 79
     3
176
     1
170
     0
176
     1
171
     0
176
     1
290
     0
176
     1
 93
        5
176
     1
 44
0.0
176
     1
173
     0
176
     1
1001
ACAD
1000
AcDbSavedByObjectVersion
1070
     0
  0
VISUALSTYLE
  5
41
102
{ACAD_XDICTIONARY
360
967
102
}
102
{ACAD_REACTORS
330
2A
102
}
330
2A
100
AcDbVisualStyle
  2
Shaded with edges
 70
    26
177
     2
291
     0
 71
     2
176
     1
 72
     2
176
     1
 73
     1
176
     1
 90
        2
176
     1
 40
0.6
176
     1
 41
30.0
176
     1
 63
     7
421
 16777215
176
     1
 74
     1
176
     1
 91
        2
176
     1
 64
     7
176
     1
 65
   257
176
     1
 75
     2
176
     1
175
     1
176
     1
 42
1.0
176
     1
 92
        8
176
     1
 66
   257
176
     1
 43
1.0
176
     1
 76
     1
176
     1
 77
     6
176
     1
 78
     2
176
     1
 67
     7
176
     1
 79
     3
176
     1
170
     0
176
     1
171
     0
176
     1
290
     0
176
     1
 93
        5
176
     1
 44
0.0
176
     1
173
     0
176
     1
1001
ACAD
1000
AcDbSavedByObjectVersion
1070
     0
  0
VISUALSTYLE
  5
3E
102
{ACAD_XDICTIONARY
360
961
102
}
102
{ACAD_REACTORS
330
2A
102
}
330
2A
100
AcDbVisualStyle
  2
Shades of Gray
 70
    23
177
     2
291
     0
 71
     2
176
     1
 72
     2
176
     1
 73
     3
176
     1
 90
        0
176
     1
 40
0.6
176
     1
 41
30.0
176
     1
 63
     7
421
 16777215
176
     1
 74
     2
176
     1
 91
        2
176
     1
 64
     7
176
     1
 65
     7
176
     1
 75
     1
176
     1
175
     1
176
     1
 42
40.0
176
     1
 92
        8
176
     1
 66
     7
176
     1
 43
1.0
176
     1
 76
     1
176
     1
 77
     6
176
     1
 78
     2
176
     1
 67
     7
176
     1
 79
     3
176
     1
170
     0
176
     1
171
     0
176
     1
290
     0
176
     1
 93
        1
176
     1
 44
0.0
176
     1
173
     0
176
     1
1001
ACAD
1000
AcDbSavedByObjectVersion
1070
     0
  0
VISUALSTYLE
  5
3F
102
{ACAD_XDICTIONARY
360
963
102
}
102
{ACAD_REACTORS
330
2A
102
}
330
2A
100
AcDbVisualStyle
  2
Sketchy
 70
    24
177
     2
291
     0
 71
     1
176
     1
 72
     2
176
     1
 73
     2
176
     1
 90
        0
176
     1
 40
0.6
176
     1
 41
30.0
176
     1
 63
     7
421
 16777215
176
     1
 74
     2
176
     1
 91
        2
176
     1
 64
     7
176
     1
 65
     7
176
     1
 75
     1
176
     1
175
     1
176
     1
 42
40.0
176
     1
 92
       11
176
     1
 66
     7
176
     1
 43
1.0
176
     1
 76
     1
176
     1
 77
     6
176
     1
 78
     2
176
     1
 67
     7
176
     1
 79
     6
176
     1
170
     0
176
     1
171
     0
176
     1
290
     0
176
     1
 93
        1
176
     1
 44
0.0
176
     1
173
     0
176
     1
1001
ACAD
1000
AcDbSavedByObjectVersion
1070
     0
  0
VISUALSTYLE
  5
37
102
{ACAD_XDICTIONARY
360
953
102
}
102
{ACAD_REACTORS
330
2A
102
}
330
2A
100
AcDbVisualStyle
  2
Thicken
 70
    13
177
     2
291
     1
 71
     2
176
     1
 72
     2
176
     1
 73
     0
176
     1
 90
        0
176
     1
 40
0.6
176
     1
 41
30.0
176
     1
 63
     7
421
 16777215
176
     1
 74
     1
176
     1
 91
        4
176
     1
 64
     7
176
     1
 65
   257
176
     1
 75
     1
176
     1
175
     1
176
     1
 42
1.0
176
     1
 92
       12
176
     1
 66
     7
176
     1
 43
1.0
176
     1
 76
     1
176
     1
 77
     6
176
     1
 78
     2
176
     1
 67
     7
176
     1
 79
     5
176
     1
170
     0
176
     1
171
     0
176
     1
290
     0
176
     1
 93
        1
176
     1
 44
0.0
176
     1
173
     0
176
     1
1001
ACAD
1000
AcDbSavedByObjectVersion
1070
     0
  0
VISUALSTYLE
  5
30
102
{ACAD_XDICTIONARY
360
945
102
}
102
{ACAD_REACTORS
330
2A
102
}
330
2A
100
AcDbVisualStyle
  2
Wireframe
 70
     5
177
     2
291
     0
 71
     0
176
     1
 72
     2
176
     1
 73
     0
176
     1
 90
        0
176
     1
 40
0.6
176
     1
 41
30.0
176
     1
 63
     7
421
 16777215
176
     1
 74
     1
176
     1
 91
        4
176
     1
 64
     7
176
     1
 65
   257
176
     1
 75
     1
176
     1
175
     1
176
     1
 42
1.0
176
     1
 92
        0
176
     1
 66
   257
176
     1
 43
1.0
176
     1
 76
     1
176
     1
 77
     6
176
     1
 78
     2
176
     1
 67
     7
176
     1
 79
     3
176
     1
170
     0
176
     1
171
     0
176
     1
290
     0
176
     1
 93
        1
176
     1
 44
0.0
176
     1
173
     0
176
     1
1001
ACAD
1000
AcDbSavedByObjectVersion
1070
     0
  0
VISUALSTYLE
  5
40
102
{ACAD_XDICTIONARY
360
965
102
}
102
{ACAD_REACTORS
330
2A
102
}
330
2A
100
AcDbVisualStyle
  2
X-Ray
 70
    25
177
     2
291
     0
 71
     2
176
     1
 72
     2
176
     1
 73
     1
176
     1
 90
        1
176
     1
 40
0.5
176
     1
 41
30.0
176
     1
 63
     7
421
 16777215
176
     1
 74
     1
176
     1
 91
        0
176
     1
 64
     7
176
     1
 65
   257
176
     1
 75
     1
176
     1
175
     1
176
     1
 42
1.0
176
     1
 92
        8
176
     1
 66
     7
176
     1
 43
1.0
176
     1
 76
     1
176
     1
 77
     6
176
     1
 78
     2
176
     1
 67
     7
176
     1
 79
     3
176
     1
170
     0
176
     1
171
     0
176
     1
290
     0
176
     1
 93
       13
176
     1
 44
0.0
176
     1
173
     0
176
     1
1001
ACAD
1000
AcDbSavedByObjectVersion
1070
     0
  0
DICTIONARYVAR
  5
73B
102
{ACAD_REACTORS
330
73A
102
}
330
73A
100
DictionaryVariables
280
     0
  1
1:1
  0
DICTIONARYVAR
  5
73D
102
{ACAD_REACTORS
330
73A
102
}
330
73A
100
DictionaryVariables
280
     0
  1
STANDARD
  0
DICTIONARYVAR
  5
73C
102
{ACAD_REACTORS
330
73A
102
}
330
73A
100
DictionaryVariables
280
     0
  1
STANDARD
  0
DICTIONARYVAR
  5
74C
102
{ACAD_REACTORS
330
73A
102
}
330
73A
100
DictionaryVariables
280
     0
  1
Imperial24
  0
DICTIONARYVAR
  5
74D
102
{ACAD_REACTORS
330
73A
102
}
330
73A
100
DictionaryVariables
280
     0
  1
Imperial24
  0
DICTIONARY
  5
93A
102
{ACAD_REACTORS
330
938
102
}
330
938
100
AcDbDictionary
281
     1
  0
DICTIONARY
  5
939
102
{ACAD_REACTORS
330
938
102
}
330
938
100
AcDbDictionary
281
     1
  3
1616498092336
350
933
  3
1616498092352
350
934
  3
1616498092368
350
935
  3
1616498092384
350
936
  3
1616498092400
350
937
  0
DICTIONARY
  5
96D
330
743
100
AcDbDictionary
280
     1
281
     1
  3
ACAD_XREC_ROUNDTRIP
360
96E
  0
DICTIONARY
  5
96B
330
742
100
AcDbDictionary
280
     1
281
     1
  3
ACAD_XREC_ROUNDTRIP
360
96C
  0
DICTIONARY
  5
930
330
6A
100
AcDbDictionary
280
     1
281
     1
  3
ACAD_ROUNDTRIP_2008_TABLESTYLE_CELLSTYLEMAP
360
931
  0
DICTIONARY
  5
943
330
2F
100
AcDbDictionary
280
     1
281
     1
  3
ACAD_XREC_ROUNDTRIP
360
944
  0
DICTIONARY
  5
949
330
32
100
AcDbDictionary
280
     1
281
     1
  3
ACAD_XREC_ROUNDTRIP
360
94A
  0
DICTIONARY
  5
951
330
36
100
AcDbDictionary
280
     1
281
     1
  3
ACAD_XREC_ROUNDTRIP
360
952
  0
DICTIONARY
  5
959
330
3A
100
AcDbDictionary
280
     1
281
     1
  3
ACAD_XREC_ROUNDTRIP
360
95A
  0
DICTIONARY
  5
94D
330
34
100
AcDbDictionary
280
     1
281
     1
  3
ACAD_XREC_ROUNDTRIP
360
94E
  0
DICTIONARY
  5
94F
330
35
100
AcDbDictionary
280
     1
281
     1
  3
ACAD_XREC_ROUNDTRIP
360
950
  0
DICTIONARY
  5
95F
330
3D
100
AcDbDictionary
280
     1
281
     1
  3
ACAD_XREC_ROUNDTRIP
360
960
  0
DICTIONARY
  5
957
330
39
100
AcDbDictionary
280
     1
281
     1
  3
ACAD_XREC_ROUNDTRIP
360
958
  0
DICTIONARY
  5
93B
330
2B
100
AcDbDictionary
280
     1
281
     1
  3
ACAD_XREC_ROUNDTRIP
360
93C
  0
DICTIONARY
  5
93D
330
2C
100
AcDbDictionary
280
     1
281
     1
  3
ACAD_XREC_ROUNDTRIP
360
93E
  0
DICTIONARY
  5
93F
330
2D
100
AcDbDictionary
280
     1
281
     1
  3
ACAD_XREC_ROUNDTRIP
360
940
  0
DICTIONARY
  5
941
330
2E
100
AcDbDictionary
280
     1
281
     1
  3
ACAD_XREC_ROUNDTRIP
360
942
  0
DICTIONARY
  5
947
330
31
100
AcDbDictionary
280
     1
281
     1
  3
ACAD_XREC_ROUNDTRIP
360
948
  0
DICTIONARY
  5
95B
330
3B
100
AcDbDictionary
280
     1
281
     1
  3
ACAD_XREC_ROUNDTRIP
360
95C
  0
DICTIONARY
  5
955
330
38
100
AcDbDictionary
280
     1
281
     1
  3
ACAD_XREC_ROUNDTRIP
360
956
  0
DICTIONARY
  5
95D
330
3C
100
AcDbDictionary
280
     1
281
     1
  3
ACAD_XREC_ROUNDTRIP
360
95E
  0
DICTIONARY
  5
94B
330
33
100
AcDbDictionary
280
     1
281
     1
  3
ACAD_XREC_ROUNDTRIP
360
94C
  0
DICTIONARY
  5
969
330
42
100
AcDbDictionary
280
     1
281
     1
  3
ACAD_XREC_ROUNDTRIP
360
96A
  0
DICTIONARY
  5
967
330
41
100
AcDbDictionary
280
     1
281
     1
  3
ACAD_XREC_ROUNDTRIP
360
968
  0
DICTIONARY
  5
961
330
3E
100
AcDbDictionary
280
     1
281
     1
  3
ACAD_XREC_ROUNDTRIP
360
962
  0
DICTIONARY
  5
963
330
3F
100
AcDbDictionary
280
     1
281
     1
  3
ACAD_XREC_ROUNDTRIP
360
964
  0
DICTIONARY
  5
953
330
37
100
AcDbDictionary
280
     1
281
     1
  3
ACAD_XREC_ROUNDTRIP
360
954
  0
DICTIONARY
  5
945
330
30
100
AcDbDictionary
280
     1
281
     1
  3
ACAD_XREC_ROUNDTRIP
360
946
  0
DICTIONARY
  5
965
330
40
100
AcDbDictionary
280
     1
281
     1
  3
ACAD_XREC_ROUNDTRIP
360
966
  0
XRECORD
  5
933
102
{ACAD_REACTORS
330
939
102
}
330
939
100
AcDbXrecord
280
     1
  1
AcDb_Thumbnail_Schema
102
{ATTRRECORD
341
934
  2
AcDbDs::TreatedAsObjectData
280
     1
291
     1
102
ATTRRECORD}
102
{ATTRRECORD
341
935
  2
AcDbDs::Legacy
280
     1
291
     1
102
ATTRRECORD}
  2
AcDbDs::ID
280
    10
 91
        8
102
{ATTRRECORD
341
936
  2
AcDs:Indexable
280
     1
291
     1
102
ATTRRECORD}
102
{ATTRRECORD
341
937
  2
AcDbDs::HandleAttribute
280
     7
282
     1
102
ATTRRECORD}
  2
Thumbnail_Data
280
    15
 91
        0
  0
XRECORD
  5
934
102
{ACAD_REACTORS
330
939
102
}
330
939
100
AcDbXrecord
280
     1
  1
AcDbDs::TreatedAsObjectDataSchema
  2
AcDbDs::TreatedAsObjectData
280
     1
 91
        0
  0
XRECORD
  5
935
102
{ACAD_REACTORS
330
939
102
}
330
939
100
AcDbXrecord
280
     1
  1
AcDbDs::LegacySchema
  2
AcDbDs::Legacy
280
     1
 91
        0
  0
XRECORD
  5
936
102
{ACAD_REACTORS
330
939
102
}
330
939
100
AcDbXrecord
280
     1
  1
AcDbDs::IndexedPropertySchema
  2
AcDs:Indexable
280
     1
 91
        0
  0
XRECORD
  5
937
102
{ACAD_REACTORS
330
939
102
}
330
939
100
AcDbXrecord
280
     1
  1
AcDbDs::HandleAttributeSchema
  2
AcDbDs::HandleAttribute
280
     7
 91
        1
284
     1
  0
XRECORD
  5
96E
102
{ACAD_REACTORS
330
96D
102
}
330
96D
100
AcDbXrecord
280
     1
102
DISPLAYNAME
  1
Imperial24
102
FLAGS
 90
        0
  0
XRECORD
  5
96C
102
{ACAD_REACTORS
330
96B
102
}
330
96B
100
AcDbXrecord
280
     1
102
DISPLAYNAME
  1
Imperial24
102
FLAGS
 90
        0
  0
CELLSTYLEMAP
  5
931
102
{ACAD_REACTORS
330
930
102
}
330
930
100
AcDbCellStyleMap
 90
        3
300
CELLSTYLE
  1
TABLEFORMAT_BEGIN
 90
        5
170
     1
 91
        0
 92
    32768
 62
   257
 93
        1
300
CONTENTFORMAT
  1
CONTENTFORMAT_BEGIN
 90
        0
 91
        0
 92
        4
 93
        0
300

 40
0.0
140
1.0
 94
        5
 62
     0
340
11
144
0.25
309
CONTENTFORMAT_END
171
     1
301
MARGIN
  1
CELLMARGIN_BEGIN
 40
0.06
 40
0.06
 40
0.06
 40
0.06
 40
0.06
 40
0.06
309
CELLMARGIN_END
 94
        6
 95
        1
302
GRIDFORMAT
  1
GRIDFORMAT_BEGIN
 90
        0
 91
        1
 62
     0
 92
       -2
340
14
 93
        0
 40
0.045
309
GRIDFORMAT_END
 95
        2
302
GRIDFORMAT
  1
GRIDFORMAT_BEGIN
 90
        0
 91
        1
 62
     0
 92
       -2
340
14
 93
        0
 40
0.045
309
GRIDFORMAT_END
 95
        4
302
GRIDFORMAT
  1
GRIDFORMAT_BEGIN
 90
        0
 91
        1
 62
     0
 92
       -2
340
14
 93
        0
 40
0.045
309
GRIDFORMAT_END
 95
        8
302
GRIDFORMAT
  1
GRIDFORMAT_BEGIN
 90
        0
 91
        1
 62
     0
 92
       -2
340
14
 93
        0
 40
0.045
309
GRIDFORMAT_END
 95
       16
302
GRIDFORMAT
  1
GRIDFORMAT_BEGIN
 90
        0
 91
        1
 62
     0
 92
       -2
340
14
 93
        0
 40
0.045
309
GRIDFORMAT_END
 95
       32
302
GRIDFORMAT
  1
GRIDFORMAT_BEGIN
 90
        0
 91
        1
 62
     0
 92
       -2
340
14
 93
        0
 40
0.045
309
GRIDFORMAT_END
309
TABLEFORMAT_END
  1
CELLSTYLE_BEGIN
 90
        1
 91
        1
300
_TITLE
309
CELLSTYLE_END
300
CELLSTYLE
  1
TABLEFORMAT_BEGIN
 90
        5
170
     1
 91
        0
 92
        0
 62
   257
 93
        1
300
CONTENTFORMAT
  1
CONTENTFORMAT_BEGIN
 90
        0
 91
        0
 92
        4
 93
        0
300

 40
0.0
140
1.0
 94
        5
 62
     0
340
11
144
0.18
309
CONTENTFORMAT_END
171
     1
301
MARGIN
  1
CELLMARGIN_BEGIN
 40
0.06
 40
0.06
 40
0.06
 40
0.06
 40
0.06
 40
0.06
309
CELLMARGIN_END
 94
        6
 95
        1
302
GRIDFORMAT
  1
GRIDFORMAT_BEGIN
 90
        0
 91
        1
 62
     0
 92
       -2
340
14
 93
        0
 40
0.045
309
GRIDFORMAT_END
 95
        2
302
GRIDFORMAT
  1
GRIDFORMAT_BEGIN
 90
        0
 91
        1
 62
     0
 92
       -2
340
14
 93
        0
 40
0.045
309
GRIDFORMAT_END
 95
        4
302
GRIDFORMAT
  1
GRIDFORMAT_BEGIN
 90
        0
 91
        1
 62
     0
 92
       -2
340
14
 93
        0
 40
0.045
309
GRIDFORMAT_END
 95
        8
302
GRIDFORMAT
  1
GRIDFORMAT_BEGIN
 90
        0
 91
        1
 62
     0
 92
       -2
340
14
 93
        0
 40
0.045
309
GRIDFORMAT_END
 95
       16
302
GRIDFORMAT
  1
GRIDFORMAT_BEGIN
 90
        0
 91
        1
 62
     0
 92
       -2
340
14
 93
        0
 40
0.045
309
GRIDFORMAT_END
 95
       32
302
GRIDFORMAT
  1
GRIDFORMAT_BEGIN
 90
        0
 91
        1
 62
     0
 92
       -2
340
14
 93
        0
 40
0.045
309
GRIDFORMAT_END
309
TABLEFORMAT_END
  1
CELLSTYLE_BEGIN
 90
        2
 91
        1
300
_HEADER
309
CELLSTYLE_END
300
CELLSTYLE
  1
TABLEFORMAT_BEGIN
 90
        5
170
     1
 91
        0
 92
        0
 62
   257
 93
        1
300
CONTENTFORMAT
  1
CONTENTFORMAT_BEGIN
 90
        0
 91
        0
 92
        4
 93
        0
300

 40
0.0
140
1.0
 94
        2
 62
     0
340
11
144
0.18
309
CONTENTFORMAT_END
171
     1
301
MARGIN
  1
CELLMARGIN_BEGIN
 40
0.06
 40
0.06
 40
0.06
 40
0.06
 40
0.06
 40
0.06
309
CELLMARGIN_END
 94
        6
 95
        1
302
GRIDFORMAT
  1
GRIDFORMAT_BEGIN
 90
        0
 91
        1
 62
     0
 92
       -2
340
14
 93
        0
 40
0.045
309
GRIDFORMAT_END
 95
        2
302
GRIDFORMAT
  1
GRIDFORMAT_BEGIN
 90
        0
 91
        1
 62
     0
 92
       -2
340
14
 93
        0
 40
0.045
309
GRIDFORMAT_END
 95
        4
302
GRIDFORMAT
  1
GRIDFORMAT_BEGIN
 90
        0
 91
        1
 62
     0
 92
       -2
340
14
 93
        0
 40
0.045
309
GRIDFORMAT_END
 95
        8
302
GRIDFORMAT
  1
GRIDFORMAT_BEGIN
 90
        0
 91
        1
 62
     0
 92
       -2
340
14
 93
        0
 40
0.045
309
GRIDFORMAT_END
 95
       16
302
GRIDFORMAT
  1
GRIDFORMAT_BEGIN
 90
        0
 91
        1
 62
     0
 92
       -2
340
14
 93
        0
 40
0.045
309
GRIDFORMAT_END
 95
       32
302
GRIDFORMAT
  1
GRIDFORMAT_BEGIN
 90
        0
 91
        1
 62
     0
 92
       -2
340
14
 93
        0
 40
0.045
309
GRIDFORMAT_END
309
TABLEFORMAT_END
  1
CELLSTYLE_BEGIN
 90
        3
 91
        2
300
_DATA
309
CELLSTYLE_END
  0
XRECORD
  5
944
102
{ACAD_REACTORS
330
943
102
}
330
943
100
AcDbXrecord
280
     1
102
RTVSPost2010Prop28
280
     1
102
RTVSPost2010PropOp28
 70
     1
102
RTVSPost2010Prop29
280
     1
102
RTVSPost2010PropOp29
 70
     1
102
RTVSPost2010Prop30
280
     0
102
RTVSPost2010PropOp30
 70
     1
102
RTVSPost2010Prop31
280
     0
102
RTVSPost2010PropOp31
 70
     1
102
RTVSPost2010Prop32
280
     0
102
RTVSPost2010PropOp32
 70
     1
102
RTVSPost2010Prop33
280
     0
102
RTVSPost2010PropOp33
 70
     1
102
RTVSPost2010Prop34
280
     0
102
RTVSPost2010PropOp34
 70
     1
102
RTVSPost2010Prop35
280
     0
102
RTVSPost2010PropOp35
 70
     1
102
RTVSPost2010Prop36
280
     0
102
RTVSPost2010PropOp36
 70
     1
102
RTVSPost2010Prop37
 90
       50
102
RTVSPost2010PropOp37
 70
     1
102
RTVSPost2010Prop38
140
0.0
102
RTVSPost2010PropOp38
 70
     1
102
RTVSPost2010Prop39
140
1.0
102
RTVSPost2010PropOp39
 70
     1
102
RTVSPost2010Prop40
 90
        0
102
RTVSPost2010PropOp40
 70
     1
102
RTVSPost2010Prop41ColorIndex
 90
       18
102
RTVSPost2010Prop41ColorRGB
 90
        0
102
RTVSPost2010PropOp41
 70
     1
102
RTVSPost2010Prop42
 90
       50
102
RTVSPost2010PropOp42
 70
     1
102
RTVSPost2010Prop43
 90
        3
102
RTVSPost2010PropOp43
 70
     1
102
RTVSPost2010Prop44ColorIndex
 90
        5
102
RTVSPost2010Prop44ColorRGB
 90
      255
102
RTVSPost2010PropOp44
 70
     1
102
RTVSPost2010Prop45
280
     0
102
RTVSPost2010PropOp45
 70
     1
102
RTVSPost2010Prop46
 90
       50
102
RTVSPost2010PropOp46
 70
     1
102
RTVSPost2010Prop47
 90
       50
102
RTVSPost2010PropOp47
 70
     1
102
RTVSPost2010Prop48
 90
       50
102
RTVSPost2010PropOp48
 70
     1
102
RTVSPost2010Prop49
280
     0
102
RTVSPost2010PropOp49
 70
     1
102
RTVSPost2010Prop50
 90
       50
102
RTVSPost2010PropOp50
 70
     1
102
RTVSPost2010Prop51ColorIndex
 90
      256
102
RTVSPost2010Prop51ColorRGB
 90
-16777216
102
RTVSPost2010PropOp51
 70
     0
102
RTVSPost2010Prop52
140
1.0
102
RTVSPost2010PropOp52
 70
     0
102
RTVSPost2010Prop53
 90
        2
102
RTVSPost2010PropOp53
 70
     1
102
RTVSPost2010Prop54
  1
strokes_ogs.tif
102
RTVSPost2010PropOp54
 70
     1
102
RTVSPost2010Prop55
280
     0
102
RTVSPost2010PropOp55
 70
     1
102
RTVSPost2010Prop56
140
1.0
102
RTVSPost2010PropOp56
 70
     1
102
RTVSPost2010Prop57
140
1.0
102
RTVSPost2010PropOp57
 70
     1
  0
XRECORD
  5
94A
102
{ACAD_REACTORS
330
949
102
}
330
949
100
AcDbXrecord
280
     1
102
RTVSPost2010Prop28
280
     0
102
RTVSPost2010PropOp28
 70
     1
102
RTVSPost2010Prop29
280
     1
102
RTVSPost2010PropOp29
 70
     1
102
RTVSPost2010Prop30
280
     1
102
RTVSPost2010PropOp30
 70
     1
102
RTVSPost2010Prop31
280
     0
102
RTVSPost2010PropOp31
 70
     1
102
RTVSPost2010Prop32
280
     0
102
RTVSPost2010PropOp32
 70
     1
102
RTVSPost2010Prop33
280
     0
102
RTVSPost2010PropOp33
 70
     1
102
RTVSPost2010Prop34
280
     0
102
RTVSPost2010PropOp34
 70
     1
102
RTVSPost2010Prop35
280
     0
102
RTVSPost2010PropOp35
 70
     1
102
RTVSPost2010Prop36
280
     0
102
RTVSPost2010PropOp36
 70
     1
102
RTVSPost2010Prop37
 90
       50
102
RTVSPost2010PropOp37
 70
     1
102
RTVSPost2010Prop38
140
0.0
102
RTVSPost2010PropOp38
 70
     1
102
RTVSPost2010Prop39
140
1.0
102
RTVSPost2010PropOp39
 70
     1
102
RTVSPost2010Prop40
 90
        0
102
RTVSPost2010PropOp40
 70
     1
102
RTVSPost2010Prop41ColorIndex
 90
       18
102
RTVSPost2010Prop41ColorRGB
 90
        0
102
RTVSPost2010PropOp41
 70
     1
102
RTVSPost2010Prop42
 90
       50
102
RTVSPost2010PropOp42
 70
     1
102
RTVSPost2010Prop43
 90
        3
102
RTVSPost2010PropOp43
 70
     1
102
RTVSPost2010Prop44ColorIndex
 90
        5
102
RTVSPost2010Prop44ColorRGB
 90
      255
102
RTVSPost2010PropOp44
 70
     1
102
RTVSPost2010Prop45
280
     0
102
RTVSPost2010PropOp45
 70
     1
102
RTVSPost2010Prop46
 90
       50
102
RTVSPost2010PropOp46
 70
     1
102
RTVSPost2010Prop47
 90
       50
102
RTVSPost2010PropOp47
 70
     1
102
RTVSPost2010Prop48
 90
       50
102
RTVSPost2010PropOp48
 70
     1
102
RTVSPost2010Prop49
280
     0
102
RTVSPost2010PropOp49
 70
     1
102
RTVSPost2010Prop50
 90
       50
102
RTVSPost2010PropOp50
 70
     1
102
RTVSPost2010Prop51ColorIndex
 90
      256
102
RTVSPost2010Prop51ColorRGB
 90
-16777216
102
RTVSPost2010PropOp51
 70
     0
102
RTVSPost2010Prop52
140
1.0
102
RTVSPost2010PropOp52
 70
     0
102
RTVSPost2010Prop53
 90
        2
102
RTVSPost2010PropOp53
 70
     1
102
RTVSPost2010Prop54
  1
strokes_ogs.tif
102
RTVSPost2010PropOp54
 70
     1
102
RTVSPost2010Prop55
280
     0
102
RTVSPost2010PropOp55
 70
     1
102
RTVSPost2010Prop56
140
1.0
102
RTVSPost2010PropOp56
 70
     1
102
RTVSPost2010Prop57
140
1.0
102
RTVSPost2010PropOp57
 70
     1
  0
XRECORD
  5
952
102
{ACAD_REACTORS
330
951
102
}
330
951
100
AcDbXrecord
280
     1
102
RTVSPost2010Prop28
280
     0
102
RTVSPost2010PropOp28
 70
     1
102
RTVSPost2010Prop29
280
     1
102
RTVSPost2010PropOp29
 70
     1
102
RTVSPost2010Prop30
280
     1
102
RTVSPost2010PropOp30
 70
     1
102
RTVSPost2010Prop31
280
     0
102
RTVSPost2010PropOp31
 70
     1
102
RTVSPost2010Prop32
280
     0
102
RTVSPost2010PropOp32
 70
     1
102
RTVSPost2010Prop33
280
     0
102
RTVSPost2010PropOp33
 70
     1
102
RTVSPost2010Prop34
280
     0
102
RTVSPost2010PropOp34
 70
     1
102
RTVSPost2010Prop35
280
     0
102
RTVSPost2010PropOp35
 70
     1
102
RTVSPost2010Prop36
280
     0
102
RTVSPost2010PropOp36
 70
     1
102
RTVSPost2010Prop37
 90
       50
102
RTVSPost2010PropOp37
 70
     1
102
RTVSPost2010Prop38
140
0.0
102
RTVSPost2010PropOp38
 70
     1
102
RTVSPost2010Prop39
140
1.0
102
RTVSPost2010PropOp39
 70
     1
102
RTVSPost2010Prop40
 90
        0
102
RTVSPost2010PropOp40
 70
     1
102
RTVSPost2010Prop41ColorIndex
 90
       18
102
RTVSPost2010Prop41ColorRGB
 90
        0
102
RTVSPost2010PropOp41
 70
     1
102
RTVSPost2010Prop42
 90
       50
102
RTVSPost2010PropOp42
 70
     1
102
RTVSPost2010Prop43
 90
        3
102
RTVSPost2010PropOp43
 70
     1
102
RTVSPost2010Prop44ColorIndex
 90
        5
102
RTVSPost2010Prop44ColorRGB
 90
      255
102
RTVSPost2010PropOp44
 70
     1
102
RTVSPost2010Prop45
280
     0
102
RTVSPost2010PropOp45
 70
     1
102
RTVSPost2010Prop46
 90
       50
102
RTVSPost2010PropOp46
 70
     1
102
RTVSPost2010Prop47
 90
       50
102
RTVSPost2010PropOp47
 70
     1
102
RTVSPost2010Prop48
 90
       50
102
RTVSPost2010PropOp48
 70
     1
102
RTVSPost2010Prop49
280
     0
102
RTVSPost2010PropOp49
 70
     1
102
RTVSPost2010Prop50
 90
       50
102
RTVSPost2010PropOp50
 70
     1
102
RTVSPost2010Prop51ColorIndex
 90
      256
102
RTVSPost2010Prop51ColorRGB
 90
-16777216
102
RTVSPost2010PropOp51
 70
     0
102
RTVSPost2010Prop52
140
1.0
102
RTVSPost2010PropOp52
 70
     0
102
RTVSPost2010Prop53
 90
        2
102
RTVSPost2010PropOp53
 70
     1
102
RTVSPost2010Prop54
  1
strokes_ogs.tif
102
RTVSPost2010PropOp54
 70
     1
102
RTVSPost2010Prop55
280
     0
102
RTVSPost2010PropOp55
 70
     1
102
RTVSPost2010Prop56
140
1.0
102
RTVSPost2010PropOp56
 70
     1
102
RTVSPost2010Prop57
140
1.0
102
RTVSPost2010PropOp57
 70
     1
  0
XRECORD
  5
95A
102
{ACAD_REACTORS
330
959
102
}
330
959
100
AcDbXrecord
280
     1
102
RTVSPost2010Prop28
280
     0
102
RTVSPost2010PropOp28
 70
     1
102
RTVSPost2010Prop29
280
     1
102
RTVSPost2010PropOp29
 70
     1
102
RTVSPost2010Prop30
280
     1
102
RTVSPost2010PropOp30
 70
     1
102
RTVSPost2010Prop31
280
     0
102
RTVSPost2010PropOp31
 70
     1
102
RTVSPost2010Prop32
280
     0
102
RTVSPost2010PropOp32
 70
     1
102
RTVSPost2010Prop33
280
     0
102
RTVSPost2010PropOp33
 70
     1
102
RTVSPost2010Prop34
280
     0
102
RTVSPost2010PropOp34
 70
     1
102
RTVSPost2010Prop35
280
     0
102
RTVSPost2010PropOp35
 70
     1
102
RTVSPost2010Prop36
280
     0
102
RTVSPost2010PropOp36
 70
     1
102
RTVSPost2010Prop37
 90
       50
102
RTVSPost2010PropOp37
 70
     1
102
RTVSPost2010Prop38
140
0.0
102
RTVSPost2010PropOp38
 70
     1
102
RTVSPost2010Prop39
140
1.0
102
RTVSPost2010PropOp39
 70
     1
102
RTVSPost2010Prop40
 90
        0
102
RTVSPost2010PropOp40
 70
     1
102
RTVSPost2010Prop41ColorIndex
 90
       18
102
RTVSPost2010Prop41ColorRGB
 90
        0
102
RTVSPost2010PropOp41
 70
     1
102
RTVSPost2010Prop42
 90
       50
102
RTVSPost2010PropOp42
 70
     1
102
RTVSPost2010Prop43
 90
        3
102
RTVSPost2010PropOp43
 70
     1
102
RTVSPost2010Prop44ColorIndex
 90
        5
102
RTVSPost2010Prop44ColorRGB
 90
      255
102
RTVSPost2010PropOp44
 70
     1
102
RTVSPost2010Prop45
280
     0
102
RTVSPost2010PropOp45
 70
     1
102
RTVSPost2010Prop46
 90
       50
102
RTVSPost2010PropOp46
 70
     1
102
RTVSPost2010Prop47
 90
       50
102
RTVSPost2010PropOp47
 70
     1
102
RTVSPost2010Prop48
 90
       50
102
RTVSPost2010PropOp48
 70
     1
102
RTVSPost2010Prop49
280
     0
102
RTVSPost2010PropOp49
 70
     1
102
RTVSPost2010Prop50
 90
       50
102
RTVSPost2010PropOp50
 70
     1
102
RTVSPost2010Prop51ColorIndex
 90
      256
102
RTVSPost2010Prop51ColorRGB
 90
-16777216
102
RTVSPost2010PropOp51
 70
     0
102
RTVSPost2010Prop52
140
1.0
102
RTVSPost2010PropOp52
 70
     0
102
RTVSPost2010Prop53
 90
        2
102
RTVSPost2010PropOp53
 70
     1
102
RTVSPost2010Prop54
  1
strokes_ogs.tif
102
RTVSPost2010PropOp54
 70
     1
102
RTVSPost2010Prop55
280
     0
102
RTVSPost2010PropOp55
 70
     1
102
RTVSPost2010Prop56
140
1.0
102
RTVSPost2010PropOp56
 70
     1
102
RTVSPost2010Prop57
140
1.0
102
RTVSPost2010PropOp57
 70
     1
  0
XRECORD
  5
94E
102
{ACAD_REACTORS
330
94D
102
}
330
94D
100
AcDbXrecord
280
     1
102
RTVSPost2010Prop28
280
     0
102
RTVSPost2010PropOp28
 70
     1
102
RTVSPost2010Prop29
280
     1
102
RTVSPost2010PropOp29
 70
     1
102
RTVSPost2010Prop30
280
     1
102
RTVSPost2010PropOp30
 70
     1
102
RTVSPost2010Prop31
280
     0
102
RTVSPost2010PropOp31
 70
     1
102
RTVSPost2010Prop32
280
     0
102
RTVSPost2010PropOp32
 70
     1
102
RTVSPost2010Prop33
280
     0
102
RTVSPost2010PropOp33
 70
     1
102
RTVSPost2010Prop34
280
     0
102
RTVSPost2010PropOp34
 70
     1
102
RTVSPost2010Prop35
280
     0
102
RTVSPost2010PropOp35
 70
     1
102
RTVSPost2010Prop36
280
     0
102
RTVSPost2010PropOp36
 70
     1
102
RTVSPost2010Prop37
 90
       50
102
RTVSPost2010PropOp37
 70
     1
102
RTVSPost2010Prop38
140
0.0
102
RTVSPost2010PropOp38
 70
     1
102
RTVSPost2010Prop39
140
1.0
102
RTVSPost2010PropOp39
 70
     1
102
RTVSPost2010Prop40
 90
        0
102
RTVSPost2010PropOp40
 70
     1
102
RTVSPost2010Prop41ColorIndex
 90
       18
102
RTVSPost2010Prop41ColorRGB
 90
        0
102
RTVSPost2010PropOp41
 70
     1
102
RTVSPost2010Prop42
 90
       50
102
RTVSPost2010PropOp42
 70
     1
102
RTVSPost2010Prop43
 90
        3
102
RTVSPost2010PropOp43
 70
     1
102
RTVSPost2010Prop44ColorIndex
 90
        5
102
RTVSPost2010Prop44ColorRGB
 90
      255
102
RTVSPost2010PropOp44
 70
     1
102
RTVSPost2010Prop45
280
     0
102
RTVSPost2010PropOp45
 70
     1
102
RTVSPost2010Prop46
 90
       50
102
RTVSPost2010PropOp46
 70
     1
102
RTVSPost2010Prop47
 90
       50
102
RTVSPost2010PropOp47
 70
     1
102
RTVSPost2010Prop48
 90
       50
102
RTVSPost2010PropOp48
 70
     1
102
RTVSPost2010Prop49
280
     0
102
RTVSPost2010PropOp49
 70
     1
102
RTVSPost2010Prop50
 90
       50
102
RTVSPost2010PropOp50
 70
     1
102
RTVSPost2010Prop51ColorIndex
 90
      256
102
RTVSPost2010Prop51ColorRGB
 90
-16777216
102
RTVSPost2010PropOp51
 70
     0
102
RTVSPost2010Prop52
140
1.0
102
RTVSPost2010PropOp52
 70
     0
102
RTVSPost2010Prop53
 90
        2
102
RTVSPost2010PropOp53
 70
     1
102
RTVSPost2010Prop54
  1
strokes_ogs.tif
102
RTVSPost2010PropOp54
 70
     1
102
RTVSPost2010Prop55
280
     0
102
RTVSPost2010PropOp55
 70
     1
102
RTVSPost2010Prop56
140
1.0
102
RTVSPost2010PropOp56
 70
     1
102
RTVSPost2010Prop57
140
1.0
102
RTVSPost2010PropOp57
 70
     1
  0
XRECORD
  5
950
102
{ACAD_REACTORS
330
94F
102
}
330
94F
100
AcDbXrecord
280
     1
102
RTVSPost2010Prop28
280
     0
102
RTVSPost2010PropOp28
 70
     1
102
RTVSPost2010Prop29
280
     1
102
RTVSPost2010PropOp29
 70
     1
102
RTVSPost2010Prop30
280
     1
102
RTVSPost2010PropOp30
 70
     1
102
RTVSPost2010Prop31
280
     0
102
RTVSPost2010PropOp31
 70
     1
102
RTVSPost2010Prop32
280
     0
102
RTVSPost2010PropOp32
 70
     1
102
RTVSPost2010Prop33
280
     0
102
RTVSPost2010PropOp33
 70
     1
102
RTVSPost2010Prop34
280
     0
102
RTVSPost2010PropOp34
 70
     1
102
RTVSPost2010Prop35
280
     0
102
RTVSPost2010PropOp35
 70
     1
102
RTVSPost2010Prop36
280
     0
102
RTVSPost2010PropOp36
 70
     1
102
RTVSPost2010Prop37
 90
       50
102
RTVSPost2010PropOp37
 70
     1
102
RTVSPost2010Prop38
140
0.0
102
RTVSPost2010PropOp38
 70
     1
102
RTVSPost2010Prop39
140
1.0
102
RTVSPost2010PropOp39
 70
     1
102
RTVSPost2010Prop40
 90
        0
102
RTVSPost2010PropOp40
 70
     1
102
RTVSPost2010Prop41ColorIndex
 90
       18
102
RTVSPost2010Prop41ColorRGB
 90
        0
102
RTVSPost2010PropOp41
 70
     1
102
RTVSPost2010Prop42
 90
       50
102
RTVSPost2010PropOp42
 70
     1
102
RTVSPost2010Prop43
 90
        3
102
RTVSPost2010PropOp43
 70
     1
102
RTVSPost2010Prop44ColorIndex
 90
        5
102
RTVSPost2010Prop44ColorRGB
 90
      255
102
RTVSPost2010PropOp44
 70
     1
102
RTVSPost2010Prop45
280
     0
102
RTVSPost2010PropOp45
 70
     1
102
RTVSPost2010Prop46
 90
       50
102
RTVSPost2010PropOp46
 70
     1
102
RTVSPost2010Prop47
 90
       50
102
RTVSPost2010PropOp47
 70
     1
102
RTVSPost2010Prop48
 90
       50
102
RTVSPost2010PropOp48
 70
     1
102
RTVSPost2010Prop49
280
     0
102
RTVSPost2010PropOp49
 70
     1
102
RTVSPost2010Prop50
 90
       50
102
RTVSPost2010PropOp50
 70
     1
102
RTVSPost2010Prop51ColorIndex
 90
      256
102
RTVSPost2010Prop51ColorRGB
 90
-16777216
102
RTVSPost2010PropOp51
 70
     0
102
RTVSPost2010Prop52
140
1.0
102
RTVSPost2010PropOp52
 70
     0
102
RTVSPost2010Prop53
 90
        2
102
RTVSPost2010PropOp53
 70
     1
102
RTVSPost2010Prop54
  1
strokes_ogs.tif
102
RTVSPost2010PropOp54
 70
     1
102
RTVSPost2010Prop55
280
     0
102
RTVSPost2010PropOp55
 70
     1
102
RTVSPost2010Prop56
140
1.0
102
RTVSPost2010PropOp56
 70
     1
102
RTVSPost2010Prop57
140
1.0
102
RTVSPost2010PropOp57
 70
     1
  0
XRECORD
  5
960
102
{ACAD_REACTORS
330
95F
102
}
330
95F
100
AcDbXrecord
280
     1
102
RTVSPost2010Prop28
280
     0
102
RTVSPost2010PropOp28
 70
     0
102
RTVSPost2010Prop29
280
     1
102
RTVSPost2010PropOp29
 70
     0
102
RTVSPost2010Prop30
280
     1
102
RTVSPost2010PropOp30
 70
     0
102
RTVSPost2010Prop31
280
     0
102
RTVSPost2010PropOp31
 70
     0
102
RTVSPost2010Prop32
280
     0
102
RTVSPost2010PropOp32
 70
     0
102
RTVSPost2010Prop33
280
     0
102
RTVSPost2010PropOp33
 70
     0
102
RTVSPost2010Prop34
280
     0
102
RTVSPost2010PropOp34
 70
     0
102
RTVSPost2010Prop35
280
     0
102
RTVSPost2010PropOp35
 70
     0
102
RTVSPost2010Prop36
280
     0
102
RTVSPost2010PropOp36
 70
     0
102
RTVSPost2010Prop37
 90
       50
102
RTVSPost2010PropOp37
 70
     0
102
RTVSPost2010Prop38
140
0.0
102
RTVSPost2010PropOp38
 70
     0
102
RTVSPost2010Prop39
140
1.0
102
RTVSPost2010PropOp39
 70
     0
102
RTVSPost2010Prop40
 90
        0
102
RTVSPost2010PropOp40
 70
     0
102
RTVSPost2010Prop41ColorIndex
 90
       18
102
RTVSPost2010Prop41ColorRGB
 90
        0
102
RTVSPost2010PropOp41
 70
     0
102
RTVSPost2010Prop42
 90
       50
102
RTVSPost2010PropOp42
 70
     0
102
RTVSPost2010Prop43
 90
        3
102
RTVSPost2010PropOp43
 70
     0
102
RTVSPost2010Prop44ColorIndex
 90
        5
102
RTVSPost2010Prop44ColorRGB
 90
      255
102
RTVSPost2010PropOp44
 70
     0
102
RTVSPost2010Prop45
280
     0
102
RTVSPost2010PropOp45
 70
     0
102
RTVSPost2010Prop46
 90
       50
102
RTVSPost2010PropOp46
 70
     0
102
RTVSPost2010Prop47
 90
       50
102
RTVSPost2010PropOp47
 70
     0
102
RTVSPost2010Prop48
 90
       50
102
RTVSPost2010PropOp48
 70
     0
102
RTVSPost2010Prop49
280
     0
102
RTVSPost2010PropOp49
 70
     0
102
RTVSPost2010Prop50
 90
       50
102
RTVSPost2010PropOp50
 70
     0
102
RTVSPost2010Prop51ColorIndex
 90
      256
102
RTVSPost2010Prop51ColorRGB
 90
-16777216
102
RTVSPost2010PropOp51
 70
     0
102
RTVSPost2010Prop52
140
1.0
102
RTVSPost2010PropOp52
 70
     0
102
RTVSPost2010Prop53
 90
        2
102
RTVSPost2010PropOp53
 70
     0
102
RTVSPost2010Prop54
  1
strokes_ogs.tif
102
RTVSPost2010PropOp54
 70
     0
102
RTVSPost2010Prop55
280
     0
102
RTVSPost2010PropOp55
 70
     0
102
RTVSPost2010Prop56
140
1.0
102
RTVSPost2010PropOp56
 70
     0
102
RTVSPost2010Prop57
140
1.0
102
RTVSPost2010PropOp57
 70
     0
  0
XRECORD
  5
958
102
{ACAD_REACTORS
330
957
102
}
330
957
100
AcDbXrecord
280
     1
102
RTVSPost2010Prop28
280
     0
102
RTVSPost2010PropOp28
 70
     1
102
RTVSPost2010Prop29
280
     1
102
RTVSPost2010PropOp29
 70
     1
102
RTVSPost2010Prop30
280
     1
102
RTVSPost2010PropOp30
 70
     1
102
RTVSPost2010Prop31
280
     0
102
RTVSPost2010PropOp31
 70
     1
102
RTVSPost2010Prop32
280
     0
102
RTVSPost2010PropOp32
 70
     1
102
RTVSPost2010Prop33
280
     0
102
RTVSPost2010PropOp33
 70
     1
102
RTVSPost2010Prop34
280
     0
102
RTVSPost2010PropOp34
 70
     1
102
RTVSPost2010Prop35
280
     0
102
RTVSPost2010PropOp35
 70
     1
102
RTVSPost2010Prop36
280
     0
102
RTVSPost2010PropOp36
 70
     1
102
RTVSPost2010Prop37
 90
       50
102
RTVSPost2010PropOp37
 70
     1
102
RTVSPost2010Prop38
140
0.0
102
RTVSPost2010PropOp38
 70
     1
102
RTVSPost2010Prop39
140
1.0
102
RTVSPost2010PropOp39
 70
     1
102
RTVSPost2010Prop40
 90
        0
102
RTVSPost2010PropOp40
 70
     1
102
RTVSPost2010Prop41ColorIndex
 90
       18
102
RTVSPost2010Prop41ColorRGB
 90
        0
102
RTVSPost2010PropOp41
 70
     1
102
RTVSPost2010Prop42
 90
       50
102
RTVSPost2010PropOp42
 70
     1
102
RTVSPost2010Prop43
 90
        3
102
RTVSPost2010PropOp43
 70
     1
102
RTVSPost2010Prop44ColorIndex
 90
        5
102
RTVSPost2010Prop44ColorRGB
 90
      255
102
RTVSPost2010PropOp44
 70
     1
102
RTVSPost2010Prop45
280
     0
102
RTVSPost2010PropOp45
 70
     1
102
RTVSPost2010Prop46
 90
       50
102
RTVSPost2010PropOp46
 70
     1
102
RTVSPost2010Prop47
 90
       50
102
RTVSPost2010PropOp47
 70
     1
102
RTVSPost2010Prop48
 90
       50
102
RTVSPost2010PropOp48
 70
     1
102
RTVSPost2010Prop49
280
     0
102
RTVSPost2010PropOp49
 70
     1
102
RTVSPost2010Prop50
 90
       50
102
RTVSPost2010PropOp50
 70
     1
102
RTVSPost2010Prop51ColorIndex
 90
      256
102
RTVSPost2010Prop51ColorRGB
 90
-16777216
102
RTVSPost2010PropOp51
 70
     0
102
RTVSPost2010Prop52
140
1.0
102
RTVSPost2010PropOp52
 70
     0
102
RTVSPost2010Prop53
 90
        2
102
RTVSPost2010PropOp53
 70
     1
102
RTVSPost2010Prop54
  1
strokes_ogs.tif
102
RTVSPost2010PropOp54
 70
     1
102
RTVSPost2010Prop55
280
     0
102
RTVSPost2010PropOp55
 70
     1
102
RTVSPost2010Prop56
140
1.0
102
RTVSPost2010PropOp56
 70
     1
102
RTVSPost2010Prop57
140
1.0
102
RTVSPost2010PropOp57
 70
     1
  0
XRECORD
  5
93C
102
{ACAD_REACTORS
330
93B
102
}
330
93B
100
AcDbXrecord
280
     1
102
RTVSPost2010Prop28
280
     0
102
RTVSPost2010PropOp28
 70
     1
102
RTVSPost2010Prop29
280
     1
102
RTVSPost2010PropOp29
 70
     1
102
RTVSPost2010Prop30
280
     1
102
RTVSPost2010PropOp30
 70
     1
102
RTVSPost2010Prop31
280
     0
102
RTVSPost2010PropOp31
 70
     1
102
RTVSPost2010Prop32
280
     0
102
RTVSPost2010PropOp32
 70
     1
102
RTVSPost2010Prop33
280
     0
102
RTVSPost2010PropOp33
 70
     1
102
RTVSPost2010Prop34
280
     0
102
RTVSPost2010PropOp34
 70
     1
102
RTVSPost2010Prop35
280
     0
102
RTVSPost2010PropOp35
 70
     1
102
RTVSPost2010Prop36
280
     0
102
RTVSPost2010PropOp36
 70
     1
102
RTVSPost2010Prop37
 90
       50
102
RTVSPost2010PropOp37
 70
     1
102
RTVSPost2010Prop38
140
0.0
102
RTVSPost2010PropOp38
 70
     1
102
RTVSPost2010Prop39
140
1.0
102
RTVSPost2010PropOp39
 70
     1
102
RTVSPost2010Prop40
 90
        0
102
RTVSPost2010PropOp40
 70
     1
102
RTVSPost2010Prop41ColorIndex
 90
       18
102
RTVSPost2010Prop41ColorRGB
 90
        0
102
RTVSPost2010PropOp41
 70
     1
102
RTVSPost2010Prop42
 90
       50
102
RTVSPost2010PropOp42
 70
     1
102
RTVSPost2010Prop43
 90
        3
102
RTVSPost2010PropOp43
 70
     1
102
RTVSPost2010Prop44ColorIndex
 90
        5
102
RTVSPost2010Prop44ColorRGB
 90
      255
102
RTVSPost2010PropOp44
 70
     1
102
RTVSPost2010Prop45
280
     0
102
RTVSPost2010PropOp45
 70
     1
102
RTVSPost2010Prop46
 90
       50
102
RTVSPost2010PropOp46
 70
     1
102
RTVSPost2010Prop47
 90
       50
102
RTVSPost2010PropOp47
 70
     1
102
RTVSPost2010Prop48
 90
       50
102
RTVSPost2010PropOp48
 70
     1
102
RTVSPost2010Prop49
280
     0
102
RTVSPost2010PropOp49
 70
     1
102
RTVSPost2010Prop50
 90
       50
102
RTVSPost2010PropOp50
 70
     1
102
RTVSPost2010Prop51ColorIndex
 90
      256
102
RTVSPost2010Prop51ColorRGB
 90
-16777216
102
RTVSPost2010PropOp51
 70
     0
102
RTVSPost2010Prop52
140
1.0
102
RTVSPost2010PropOp52
 70
     0
102
RTVSPost2010Prop53
 90
        2
102
RTVSPost2010PropOp53
 70
     1
102
RTVSPost2010Prop54
  1
strokes_ogs.tif
102
RTVSPost2010PropOp54
 70
     1
102
RTVSPost2010Prop55
280
     0
102
RTVSPost2010PropOp55
 70
     1
102
RTVSPost2010Prop56
140
1.0
102
RTVSPost2010PropOp56
 70
     1
102
RTVSPost2010Prop57
140
1.0
102
RTVSPost2010PropOp57
 70
     1
  0
XRECORD
  5
93E
102
{ACAD_REACTORS
330
93D
102
}
330
93D
100
AcDbXrecord
280
     1
102
RTVSPost2010Prop28
280
     0
102
RTVSPost2010PropOp28
 70
     1
102
RTVSPost2010Prop29
280
     1
102
RTVSPost2010PropOp29
 70
     1
102
RTVSPost2010Prop30
280
     1
102
RTVSPost2010PropOp30
 70
     1
102
RTVSPost2010Prop31
280
     0
102
RTVSPost2010PropOp31
 70
     1
102
RTVSPost2010Prop32
280
     0
102
RTVSPost2010PropOp32
 70
     1
102
RTVSPost2010Prop33
280
     0
102
RTVSPost2010PropOp33
 70
     1
102
RTVSPost2010Prop34
280
     0
102
RTVSPost2010PropOp34
 70
     1
102
RTVSPost2010Prop35
280
     0
102
RTVSPost2010PropOp35
 70
     1
102
RTVSPost2010Prop36
280
     0
102
RTVSPost2010PropOp36
 70
     1
102
RTVSPost2010Prop37
 90
       50
102
RTVSPost2010PropOp37
 70
     1
102
RTVSPost2010Prop38
140
0.0
102
RTVSPost2010PropOp38
 70
     1
102
RTVSPost2010Prop39
140
1.0
102
RTVSPost2010PropOp39
 70
     1
102
RTVSPost2010Prop40
 90
        0
102
RTVSPost2010PropOp40
 70
     1
102
RTVSPost2010Prop41ColorIndex
 90
       18
102
RTVSPost2010Prop41ColorRGB
 90
        0
102
RTVSPost2010PropOp41
 70
     1
102
RTVSPost2010Prop42
 90
       50
102
RTVSPost2010PropOp42
 70
     1
102
RTVSPost2010Prop43
 90
        3
102
RTVSPost2010PropOp43
 70
     1
102
RTVSPost2010Prop44ColorIndex
 90
        5
102
RTVSPost2010Prop44ColorRGB
 90
      255
102
RTVSPost2010PropOp44
 70
     1
102
RTVSPost2010Prop45
280
     0
102
RTVSPost2010PropOp45
 70
     1
102
RTVSPost2010Prop46
 90
       50
102
RTVSPost2010PropOp46
 70
     1
102
RTVSPost2010Prop47
 90
       50
102
RTVSPost2010PropOp47
 70
     1
102
RTVSPost2010Prop48
 90
       50
102
RTVSPost2010PropOp48
 70
     1
102
RTVSPost2010Prop49
280
     0
102
RTVSPost2010PropOp49
 70
     1
102
RTVSPost2010Prop50
 90
       50
102
RTVSPost2010PropOp50
 70
     1
102
RTVSPost2010Prop51ColorIndex
 90
      256
102
RTVSPost2010Prop51ColorRGB
 90
-16777216
102
RTVSPost2010PropOp51
 70
     0
102
RTVSPost2010Prop52
140
1.0
102
RTVSPost2010PropOp52
 70
     0
102
RTVSPost2010Prop53
 90
        2
102
RTVSPost2010PropOp53
 70
     1
102
RTVSPost2010Prop54
  1
strokes_ogs.tif
102
RTVSPost2010PropOp54
 70
     1
102
RTVSPost2010Prop55
280
     0
102
RTVSPost2010PropOp55
 70
     1
102
RTVSPost2010Prop56
140
1.0
102
RTVSPost2010PropOp56
 70
     1
102
RTVSPost2010Prop57
140
1.0
102
RTVSPost2010PropOp57
 70
     1
  0
XRECORD
  5
940
102
{ACAD_REACTORS
330
93F
102
}
330
93F
100
AcDbXrecord
280
     1
102
RTVSPost2010Prop28
280
     0
102
RTVSPost2010PropOp28
 70
     1
102
RTVSPost2010Prop29
280
     1
102
RTVSPost2010PropOp29
 70
     1
102
RTVSPost2010Prop30
280
     1
102
RTVSPost2010PropOp30
 70
     1
102
RTVSPost2010Prop31
280
     0
102
RTVSPost2010PropOp31
 70
     1
102
RTVSPost2010Prop32
280
     0
102
RTVSPost2010PropOp32
 70
     1
102
RTVSPost2010Prop33
280
     0
102
RTVSPost2010PropOp33
 70
     1
102
RTVSPost2010Prop34
280
     0
102
RTVSPost2010PropOp34
 70
     1
102
RTVSPost2010Prop35
280
     0
102
RTVSPost2010PropOp35
 70
     1
102
RTVSPost2010Prop36
280
     0
102
RTVSPost2010PropOp36
 70
     1
102
RTVSPost2010Prop37
 90
       50
102
RTVSPost2010PropOp37
 70
     1
102
RTVSPost2010Prop38
140
0.0
102
RTVSPost2010PropOp38
 70
     1
102
RTVSPost2010Prop39
140
1.0
102
RTVSPost2010PropOp39
 70
     1
102
RTVSPost2010Prop40
 90
        0
102
RTVSPost2010PropOp40
 70
     1
102
RTVSPost2010Prop41ColorIndex
 90
       18
102
RTVSPost2010Prop41ColorRGB
 90
        0
102
RTVSPost2010PropOp41
 70
     1
102
RTVSPost2010Prop42
 90
       50
102
RTVSPost2010PropOp42
 70
     1
102
RTVSPost2010Prop43
 90
        3
102
RTVSPost2010PropOp43
 70
     1
102
RTVSPost2010Prop44ColorIndex
 90
        5
102
RTVSPost2010Prop44ColorRGB
 90
      255
102
RTVSPost2010PropOp44
 70
     1
102
RTVSPost2010Prop45
280
     0
102
RTVSPost2010PropOp45
 70
     1
102
RTVSPost2010Prop46
 90
       50
102
RTVSPost2010PropOp46
 70
     1
102
RTVSPost2010Prop47
 90
       50
102
RTVSPost2010PropOp47
 70
     1
102
RTVSPost2010Prop48
 90
       50
102
RTVSPost2010PropOp48
 70
     1
102
RTVSPost2010Prop49
280
     0
102
RTVSPost2010PropOp49
 70
     1
102
RTVSPost2010Prop50
 90
       50
102
RTVSPost2010PropOp50
 70
     1
102
RTVSPost2010Prop51ColorIndex
 90
      256
102
RTVSPost2010Prop51ColorRGB
 90
-16777216
102
RTVSPost2010PropOp51
 70
     0
102
RTVSPost2010Prop52
140
1.0
102
RTVSPost2010PropOp52
 70
     0
102
RTVSPost2010Prop53
 90
        2
102
RTVSPost2010PropOp53
 70
     1
102
RTVSPost2010Prop54
  1
strokes_ogs.tif
102
RTVSPost2010PropOp54
 70
     1
102
RTVSPost2010Prop55
280
     0
102
RTVSPost2010PropOp55
 70
     1
102
RTVSPost2010Prop56
140
1.0
102
RTVSPost2010PropOp56
 70
     1
102
RTVSPost2010Prop57
140
1.0
102
RTVSPost2010PropOp57
 70
     1
  0
XRECORD
  5
942
102
{ACAD_REACTORS
330
941
102
}
330
941
100
AcDbXrecord
280
     1
102
RTVSPost2010Prop28
280
     0
102
RTVSPost2010PropOp28
 70
     1
102
RTVSPost2010Prop29
280
     1
102
RTVSPost2010PropOp29
 70
     1
102
RTVSPost2010Prop30
280
     1
102
RTVSPost2010PropOp30
 70
     1
102
RTVSPost2010Prop31
280
     0
102
RTVSPost2010PropOp31
 70
     1
102
RTVSPost2010Prop32
280
     0
102
RTVSPost2010PropOp32
 70
     1
102
RTVSPost2010Prop33
280
     0
102
RTVSPost2010PropOp33
 70
     1
102
RTVSPost2010Prop34
280
     0
102
RTVSPost2010PropOp34
 70
     1
102
RTVSPost2010Prop35
280
     0
102
RTVSPost2010PropOp35
 70
     1
102
RTVSPost2010Prop36
280
     0
102
RTVSPost2010PropOp36
 70
     1
102
RTVSPost2010Prop37
 90
       50
102
RTVSPost2010PropOp37
 70
     1
102
RTVSPost2010Prop38
140
0.0
102
RTVSPost2010PropOp38
 70
     1
102
RTVSPost2010Prop39
140
1.0
102
RTVSPost2010PropOp39
 70
     1
102
RTVSPost2010Prop40
 90
        0
102
RTVSPost2010PropOp40
 70
     1
102
RTVSPost2010Prop41ColorIndex
 90
       18
102
RTVSPost2010Prop41ColorRGB
 90
        0
102
RTVSPost2010PropOp41
 70
     1
102
RTVSPost2010Prop42
 90
       50
102
RTVSPost2010PropOp42
 70
     1
102
RTVSPost2010Prop43
 90
        3
102
RTVSPost2010PropOp43
 70
     1
102
RTVSPost2010Prop44ColorIndex
 90
        5
102
RTVSPost2010Prop44ColorRGB
 90
      255
102
RTVSPost2010PropOp44
 70
     1
102
RTVSPost2010Prop45
280
     0
102
RTVSPost2010PropOp45
 70
     1
102
RTVSPost2010Prop46
 90
       50
102
RTVSPost2010PropOp46
 70
     1
102
RTVSPost2010Prop47
 90
       50
102
RTVSPost2010PropOp47
 70
     1
102
RTVSPost2010Prop48
 90
       50
102
RTVSPost2010PropOp48
 70
     1
102
RTVSPost2010Prop49
280
     0
102
RTVSPost2010PropOp49
 70
     1
102
RTVSPost2010Prop50
 90
       50
102
RTVSPost2010PropOp50
 70
     1
102
RTVSPost2010Prop51ColorIndex
 90
      256
102
RTVSPost2010Prop51ColorRGB
 90
-16777216
102
RTVSPost2010PropOp51
 70
     0
102
RTVSPost2010Prop52
140
1.0
102
RTVSPost2010PropOp52
 70
     0
102
RTVSPost2010Prop53
 90
        2
102
RTVSPost2010PropOp53
 70
     1
102
RTVSPost2010Prop54
  1
strokes_ogs.tif
102
RTVSPost2010PropOp54
 70
     1
102
RTVSPost2010Prop55
280
     0
102
RTVSPost2010PropOp55
 70
     1
102
RTVSPost2010Prop56
140
1.0
102
RTVSPost2010PropOp56
 70
     1
102
RTVSPost2010Prop57
140
1.0
102
RTVSPost2010PropOp57
 70
     1
  0
XRECORD
  5
948
102
{ACAD_REACTORS
330
947
102
}
330
947
100
AcDbXrecord
280
     1
102
RTVSPost2010Prop28
280
     0
102
RTVSPost2010PropOp28
 70
     1
102
RTVSPost2010Prop29
280
     1
102
RTVSPost2010PropOp29
 70
     1
102
RTVSPost2010Prop30
280
     1
102
RTVSPost2010PropOp30
 70
     1
102
RTVSPost2010Prop31
280
     0
102
RTVSPost2010PropOp31
 70
     1
102
RTVSPost2010Prop32
280
     0
102
RTVSPost2010PropOp32
 70
     1
102
RTVSPost2010Prop33
280
     0
102
RTVSPost2010PropOp33
 70
     1
102
RTVSPost2010Prop34
280
     0
102
RTVSPost2010PropOp34
 70
     1
102
RTVSPost2010Prop35
280
     0
102
RTVSPost2010PropOp35
 70
     1
102
RTVSPost2010Prop36
280
     0
102
RTVSPost2010PropOp36
 70
     1
102
RTVSPost2010Prop37
 90
       50
102
RTVSPost2010PropOp37
 70
     1
102
RTVSPost2010Prop38
140
0.0
102
RTVSPost2010PropOp38
 70
     1
102
RTVSPost2010Prop39
140
1.0
102
RTVSPost2010PropOp39
 70
     1
102
RTVSPost2010Prop40
 90
        0
102
RTVSPost2010PropOp40
 70
     1
102
RTVSPost2010Prop41ColorIndex
 90
       18
102
RTVSPost2010Prop41ColorRGB
 90
        0
102
RTVSPost2010PropOp41
 70
     1
102
RTVSPost2010Prop42
 90
       50
102
RTVSPost2010PropOp42
 70
     1
102
RTVSPost2010Prop43
 90
        3
102
RTVSPost2010PropOp43
 70
     1
102
RTVSPost2010Prop44ColorIndex
 90
        5
102
RTVSPost2010Prop44ColorRGB
 90
      255
102
RTVSPost2010PropOp44
 70
     1
102
RTVSPost2010Prop45
280
     0
102
RTVSPost2010PropOp45
 70
     1
102
RTVSPost2010Prop46
 90
       50
102
RTVSPost2010PropOp46
 70
     1
102
RTVSPost2010Prop47
 90
       50
102
RTVSPost2010PropOp47
 70
     1
102
RTVSPost2010Prop48
 90
       50
102
RTVSPost2010PropOp48
 70
     1
102
RTVSPost2010Prop49
280
     0
102
RTVSPost2010PropOp49
 70
     1
102
RTVSPost2010Prop50
 90
       50
102
RTVSPost2010PropOp50
 70
     1
102
RTVSPost2010Prop51ColorIndex
 90
      256
102
RTVSPost2010Prop51ColorRGB
 90
-16777216
102
RTVSPost2010PropOp51
 70
     0
102
RTVSPost2010Prop52
140
1.0
102
RTVSPost2010PropOp52
 70
     0
102
RTVSPost2010Prop53
 90
        2
102
RTVSPost2010PropOp53
 70
     1
102
RTVSPost2010Prop54
  1
strokes_ogs.tif
102
RTVSPost2010PropOp54
 70
     1
102
RTVSPost2010Prop55
280
     0
102
RTVSPost2010PropOp55
 70
     1
102
RTVSPost2010Prop56
140
1.0
102
RTVSPost2010PropOp56
 70
     1
102
RTVSPost2010Prop57
140
1.0
102
RTVSPost2010PropOp57
 70
     1
  0
XRECORD
  5
95C
102
{ACAD_REACTORS
330
95B
102
}
330
95B
100
AcDbXrecord
280
     1
102
RTVSPost2010Prop28
280
     0
102
RTVSPost2010PropOp28
 70
     0
102
RTVSPost2010Prop29
280
     1
102
RTVSPost2010PropOp29
 70
     0
102
RTVSPost2010Prop30
280
     1
102
RTVSPost2010PropOp30
 70
     0
102
RTVSPost2010Prop31
280
     0
102
RTVSPost2010PropOp31
 70
     0
102
RTVSPost2010Prop32
280
     0
102
RTVSPost2010PropOp32
 70
     0
102
RTVSPost2010Prop33
280
     0
102
RTVSPost2010PropOp33
 70
     0
102
RTVSPost2010Prop34
280
     0
102
RTVSPost2010PropOp34
 70
     0
102
RTVSPost2010Prop35
280
     0
102
RTVSPost2010PropOp35
 70
     0
102
RTVSPost2010Prop36
280
     0
102
RTVSPost2010PropOp36
 70
     0
102
RTVSPost2010Prop37
 90
       50
102
RTVSPost2010PropOp37
 70
     0
102
RTVSPost2010Prop38
140
0.0
102
RTVSPost2010PropOp38
 70
     0
102
RTVSPost2010Prop39
140
1.0
102
RTVSPost2010PropOp39
 70
     0
102
RTVSPost2010Prop40
 90
        0
102
RTVSPost2010PropOp40
 70
     0
102
RTVSPost2010Prop41ColorIndex
 90
       18
102
RTVSPost2010Prop41ColorRGB
 90
        0
102
RTVSPost2010PropOp41
 70
     0
102
RTVSPost2010Prop42
 90
       50
102
RTVSPost2010PropOp42
 70
     0
102
RTVSPost2010Prop43
 90
        3
102
RTVSPost2010PropOp43
 70
     0
102
RTVSPost2010Prop44ColorIndex
 90
        5
102
RTVSPost2010Prop44ColorRGB
 90
      255
102
RTVSPost2010PropOp44
 70
     0
102
RTVSPost2010Prop45
280
     0
102
RTVSPost2010PropOp45
 70
     0
102
RTVSPost2010Prop46
 90
       50
102
RTVSPost2010PropOp46
 70
     0
102
RTVSPost2010Prop47
 90
       50
102
RTVSPost2010PropOp47
 70
     0
102
RTVSPost2010Prop48
 90
       50
102
RTVSPost2010PropOp48
 70
     0
102
RTVSPost2010Prop49
280
     0
102
RTVSPost2010PropOp49
 70
     0
102
RTVSPost2010Prop50
 90
       50
102
RTVSPost2010PropOp50
 70
     0
102
RTVSPost2010Prop51ColorIndex
 90
      256
102
RTVSPost2010Prop51ColorRGB
 90
-16777216
102
RTVSPost2010PropOp51
 70
     0
102
RTVSPost2010Prop52
140
1.0
102
RTVSPost2010PropOp52
 70
     0
102
RTVSPost2010Prop53
 90
        2
102
RTVSPost2010PropOp53
 70
     0
102
RTVSPost2010Prop54
  1
strokes_ogs.tif
102
RTVSPost2010PropOp54
 70
     0
102
RTVSPost2010Prop55
280
     0
102
RTVSPost2010PropOp55
 70
     0
102
RTVSPost2010Prop56
140
1.0
102
RTVSPost2010PropOp56
 70
     0
102
RTVSPost2010Prop57
140
1.0
102
RTVSPost2010PropOp57
 70
     0
  0
XRECORD
  5
956
102
{ACAD_REACTORS
330
955
102
}
330
955
100
AcDbXrecord
280
     1
102
RTVSPost2010Prop28
280
     0
102
RTVSPost2010PropOp28
 70
     1
102
RTVSPost2010Prop29
280
     1
102
RTVSPost2010PropOp29
 70
     1
102
RTVSPost2010Prop30
280
     1
102
RTVSPost2010PropOp30
 70
     1
102
RTVSPost2010Prop31
280
     0
102
RTVSPost2010PropOp31
 70
     1
102
RTVSPost2010Prop32
280
     0
102
RTVSPost2010PropOp32
 70
     1
102
RTVSPost2010Prop33
280
     0
102
RTVSPost2010PropOp33
 70
     1
102
RTVSPost2010Prop34
280
     0
102
RTVSPost2010PropOp34
 70
     1
102
RTVSPost2010Prop35
280
     0
102
RTVSPost2010PropOp35
 70
     1
102
RTVSPost2010Prop36
280
     0
102
RTVSPost2010PropOp36
 70
     1
102
RTVSPost2010Prop37
 90
       50
102
RTVSPost2010PropOp37
 70
     1
102
RTVSPost2010Prop38
140
0.0
102
RTVSPost2010PropOp38
 70
     1
102
RTVSPost2010Prop39
140
1.0
102
RTVSPost2010PropOp39
 70
     1
102
RTVSPost2010Prop40
 90
        0
102
RTVSPost2010PropOp40
 70
     1
102
RTVSPost2010Prop41ColorIndex
 90
       18
102
RTVSPost2010Prop41ColorRGB
 90
        0
102
RTVSPost2010PropOp41
 70
     1
102
RTVSPost2010Prop42
 90
       50
102
RTVSPost2010PropOp42
 70
     1
102
RTVSPost2010Prop43
 90
        3
102
RTVSPost2010PropOp43
 70
     1
102
RTVSPost2010Prop44ColorIndex
 90
        5
102
RTVSPost2010Prop44ColorRGB
 90
      255
102
RTVSPost2010PropOp44
 70
     1
102
RTVSPost2010Prop45
280
     0
102
RTVSPost2010PropOp45
 70
     1
102
RTVSPost2010Prop46
 90
       50
102
RTVSPost2010PropOp46
 70
     1
102
RTVSPost2010Prop47
 90
       50
102
RTVSPost2010PropOp47
 70
     1
102
RTVSPost2010Prop48
 90
       50
102
RTVSPost2010PropOp48
 70
     1
102
RTVSPost2010Prop49
280
     0
102
RTVSPost2010PropOp49
 70
     1
102
RTVSPost2010Prop50
 90
       50
102
RTVSPost2010PropOp50
 70
     1
102
RTVSPost2010Prop51ColorIndex
 90
      256
102
RTVSPost2010Prop51ColorRGB
 90
-16777216
102
RTVSPost2010PropOp51
 70
     0
102
RTVSPost2010Prop52
140
1.0
102
RTVSPost2010PropOp52
 70
     0
102
RTVSPost2010Prop53
 90
        2
102
RTVSPost2010PropOp53
 70
     1
102
RTVSPost2010Prop54
  1
strokes_ogs.tif
102
RTVSPost2010PropOp54
 70
     1
102
RTVSPost2010Prop55
280
     0
102
RTVSPost2010PropOp55
 70
     1
102
RTVSPost2010Prop56
140
1.0
102
RTVSPost2010PropOp56
 70
     1
102
RTVSPost2010Prop57
140
1.0
102
RTVSPost2010PropOp57
 70
     1
  0
XRECORD
  5
95E
102
{ACAD_REACTORS
330
95D
102
}
330
95D
100
AcDbXrecord
280
     1
102
RTVSPost2010Prop28
280
     0
102
RTVSPost2010PropOp28
 70
     0
102
RTVSPost2010Prop29
280
     1
102
RTVSPost2010PropOp29
 70
     0
102
RTVSPost2010Prop30
280
     1
102
RTVSPost2010PropOp30
 70
     0
102
RTVSPost2010Prop31
280
     0
102
RTVSPost2010PropOp31
 70
     0
102
RTVSPost2010Prop32
280
     0
102
RTVSPost2010PropOp32
 70
     0
102
RTVSPost2010Prop33
280
     0
102
RTVSPost2010PropOp33
 70
     0
102
RTVSPost2010Prop34
280
     0
102
RTVSPost2010PropOp34
 70
     0
102
RTVSPost2010Prop35
280
     0
102
RTVSPost2010PropOp35
 70
     0
102
RTVSPost2010Prop36
280
     0
102
RTVSPost2010PropOp36
 70
     0
102
RTVSPost2010Prop37
 90
       50
102
RTVSPost2010PropOp37
 70
     0
102
RTVSPost2010Prop38
140
0.0
102
RTVSPost2010PropOp38
 70
     0
102
RTVSPost2010Prop39
140
1.0
102
RTVSPost2010PropOp39
 70
     0
102
RTVSPost2010Prop40
 90
        0
102
RTVSPost2010PropOp40
 70
     0
102
RTVSPost2010Prop41ColorIndex
 90
       18
102
RTVSPost2010Prop41ColorRGB
 90
        0
102
RTVSPost2010PropOp41
 70
     0
102
RTVSPost2010Prop42
 90
       50
102
RTVSPost2010PropOp42
 70
     0
102
RTVSPost2010Prop43
 90
        3
102
RTVSPost2010PropOp43
 70
     0
102
RTVSPost2010Prop44ColorIndex
 90
        5
102
RTVSPost2010Prop44ColorRGB
 90
      255
102
RTVSPost2010PropOp44
 70
     0
102
RTVSPost2010Prop45
280
     0
102
RTVSPost2010PropOp45
 70
     0
102
RTVSPost2010Prop46
 90
       50
102
RTVSPost2010PropOp46
 70
     0
102
RTVSPost2010Prop47
 90
       50
102
RTVSPost2010PropOp47
 70
     0
102
RTVSPost2010Prop48
 90
       50
102
RTVSPost2010PropOp48
 70
     0
102
RTVSPost2010Prop49
280
     0
102
RTVSPost2010PropOp49
 70
     0
102
RTVSPost2010Prop50
 90
       50
102
RTVSPost2010PropOp50
 70
     0
102
RTVSPost2010Prop51ColorIndex
 90
      256
102
RTVSPost2010Prop51ColorRGB
 90
-16777216
102
RTVSPost2010PropOp51
 70
     0
102
RTVSPost2010Prop52
140
1.0
102
RTVSPost2010PropOp52
 70
     0
102
RTVSPost2010Prop53
 90
        2
102
RTVSPost2010PropOp53
 70
     0
102
RTVSPost2010Prop54
  1
strokes_ogs.tif
102
RTVSPost2010PropOp54
 70
     0
102
RTVSPost2010Prop55
280
     0
102
RTVSPost2010PropOp55
 70
     0
102
RTVSPost2010Prop56
140
1.0
102
RTVSPost2010PropOp56
 70
     0
102
RTVSPost2010Prop57
140
1.0
102
RTVSPost2010PropOp57
 70
     0
  0
XRECORD
  5
94C
102
{ACAD_REACTORS
330
94B
102
}
330
94B
100
AcDbXrecord
280
     1
102
RTVSPost2010Prop28
280
     0
102
RTVSPost2010PropOp28
 70
     1
102
RTVSPost2010Prop29
280
     1
102
RTVSPost2010PropOp29
 70
     1
102
RTVSPost2010Prop30
280
     1
102
RTVSPost2010PropOp30
 70
     1
102
RTVSPost2010Prop31
280
     0
102
RTVSPost2010PropOp31
 70
     1
102
RTVSPost2010Prop32
280
     0
102
RTVSPost2010PropOp32
 70
     1
102
RTVSPost2010Prop33
280
     0
102
RTVSPost2010PropOp33
 70
     1
102
RTVSPost2010Prop34
280
     0
102
RTVSPost2010PropOp34
 70
     1
102
RTVSPost2010Prop35
280
     0
102
RTVSPost2010PropOp35
 70
     1
102
RTVSPost2010Prop36
280
     0
102
RTVSPost2010PropOp36
 70
     1
102
RTVSPost2010Prop37
 90
       50
102
RTVSPost2010PropOp37
 70
     1
102
RTVSPost2010Prop38
140
0.0
102
RTVSPost2010PropOp38
 70
     1
102
RTVSPost2010Prop39
140
1.0
102
RTVSPost2010PropOp39
 70
     1
102
RTVSPost2010Prop40
 90
        0
102
RTVSPost2010PropOp40
 70
     1
102
RTVSPost2010Prop41ColorIndex
 90
       18
102
RTVSPost2010Prop41ColorRGB
 90
        0
102
RTVSPost2010PropOp41
 70
     1
102
RTVSPost2010Prop42
 90
       50
102
RTVSPost2010PropOp42
 70
     1
102
RTVSPost2010Prop43
 90
        3
102
RTVSPost2010PropOp43
 70
     1
102
RTVSPost2010Prop44ColorIndex
 90
        5
102
RTVSPost2010Prop44ColorRGB
 90
      255
102
RTVSPost2010PropOp44
 70
     1
102
RTVSPost2010Prop45
280
     0
102
RTVSPost2010PropOp45
 70
     1
102
RTVSPost2010Prop46
 90
       50
102
RTVSPost2010PropOp46
 70
     1
102
RTVSPost2010Prop47
 90
       50
102
RTVSPost2010PropOp47
 70
     1
102
RTVSPost2010Prop48
 90
       50
102
RTVSPost2010PropOp48
 70
     1
102
RTVSPost2010Prop49
280
     0
102
RTVSPost2010PropOp49
 70
     1
102
RTVSPost2010Prop50
 90
       50
102
RTVSPost2010PropOp50
 70
     1
102
RTVSPost2010Prop51ColorIndex
 90
      256
102
RTVSPost2010Prop51ColorRGB
 90
-16777216
102
RTVSPost2010PropOp51
 70
     0
102
RTVSPost2010Prop52
140
1.0
102
RTVSPost2010PropOp52
 70
     0
102
RTVSPost2010Prop53
 90
        2
102
RTVSPost2010PropOp53
 70
     1
102
RTVSPost2010Prop54
  1
strokes_ogs.tif
102
RTVSPost2010PropOp54
 70
     1
102
RTVSPost2010Prop55
280
     0
102
RTVSPost2010PropOp55
 70
     1
102
RTVSPost2010Prop56
140
1.0
102
RTVSPost2010PropOp56
 70
     1
102
RTVSPost2010Prop57
140
1.0
102
RTVSPost2010PropOp57
 70
     1
  0
XRECORD
  5
96A
102
{ACAD_REACTORS
330
969
102
}
330
969
100
AcDbXrecord
280
     1
102
RTVSPost2010Prop28
280
     0
102
RTVSPost2010PropOp28
 70
     1
102
RTVSPost2010Prop29
280
     1
102
RTVSPost2010PropOp29
 70
     1
102
RTVSPost2010Prop30
280
     1
102
RTVSPost2010PropOp30
 70
     1
102
RTVSPost2010Prop31
280
     0
102
RTVSPost2010PropOp31
 70
     1
102
RTVSPost2010Prop32
280
     0
102
RTVSPost2010PropOp32
 70
     1
102
RTVSPost2010Prop33
280
     0
102
RTVSPost2010PropOp33
 70
     1
102
RTVSPost2010Prop34
280
     0
102
RTVSPost2010PropOp34
 70
     1
102
RTVSPost2010Prop35
280
     0
102
RTVSPost2010PropOp35
 70
     1
102
RTVSPost2010Prop36
280
     0
102
RTVSPost2010PropOp36
 70
     1
102
RTVSPost2010Prop37
 90
       50
102
RTVSPost2010PropOp37
 70
     1
102
RTVSPost2010Prop38
140
0.0
102
RTVSPost2010PropOp38
 70
     1
102
RTVSPost2010Prop39
140
1.0
102
RTVSPost2010PropOp39
 70
     1
102
RTVSPost2010Prop40
 90
        0
102
RTVSPost2010PropOp40
 70
     1
102
RTVSPost2010Prop41ColorIndex
 90
       18
102
RTVSPost2010Prop41ColorRGB
 90
        0
102
RTVSPost2010PropOp41
 70
     1
102
RTVSPost2010Prop42
 90
       50
102
RTVSPost2010PropOp42
 70
     1
102
RTVSPost2010Prop43
 90
        3
102
RTVSPost2010PropOp43
 70
     1
102
RTVSPost2010Prop44ColorIndex
 90
        5
102
RTVSPost2010Prop44ColorRGB
 90
      255
102
RTVSPost2010PropOp44
 70
     1
102
RTVSPost2010Prop45
280
     0
102
RTVSPost2010PropOp45
 70
     1
102
RTVSPost2010Prop46
 90
       50
102
RTVSPost2010PropOp46
 70
     1
102
RTVSPost2010Prop47
 90
       50
102
RTVSPost2010PropOp47
 70
     1
102
RTVSPost2010Prop48
 90
       50
102
RTVSPost2010PropOp48
 70
     1
102
RTVSPost2010Prop49
280
     0
102
RTVSPost2010PropOp49
 70
     1
102
RTVSPost2010Prop50
 90
       50
102
RTVSPost2010PropOp50
 70
     1
102
RTVSPost2010Prop51ColorIndex
 90
      256
102
RTVSPost2010Prop51ColorRGB
 90
-16777216
102
RTVSPost2010PropOp51
 70
     0
102
RTVSPost2010Prop52
140
1.0
102
RTVSPost2010PropOp52
 70
     0
102
RTVSPost2010Prop53
 90
        2
102
RTVSPost2010PropOp53
 70
     1
102
RTVSPost2010Prop54
  1
strokes_ogs.tif
102
RTVSPost2010PropOp54
 70
     1
102
RTVSPost2010Prop55
280
     0
102
RTVSPost2010PropOp55
 70
     1
102
RTVSPost2010Prop56
140
1.0
102
RTVSPost2010PropOp56
 70
     1
102
RTVSPost2010Prop57
140
1.0
102
RTVSPost2010PropOp57
 70
     1
  0
XRECORD
  5
968
102
{ACAD_REACTORS
330
967
102
}
330
967
100
AcDbXrecord
280
     1
102
RTVSPost2010Prop28
280
     0
102
RTVSPost2010PropOp28
 70
     1
102
RTVSPost2010Prop29
280
     1
102
RTVSPost2010PropOp29
 70
     1
102
RTVSPost2010Prop30
280
     1
102
RTVSPost2010PropOp30
 70
     1
102
RTVSPost2010Prop31
280
     0
102
RTVSPost2010PropOp31
 70
     1
102
RTVSPost2010Prop32
280
     0
102
RTVSPost2010PropOp32
 70
     1
102
RTVSPost2010Prop33
280
     0
102
RTVSPost2010PropOp33
 70
     1
102
RTVSPost2010Prop34
280
     0
102
RTVSPost2010PropOp34
 70
     1
102
RTVSPost2010Prop35
280
     0
102
RTVSPost2010PropOp35
 70
     1
102
RTVSPost2010Prop36
280
     0
102
RTVSPost2010PropOp36
 70
     1
102
RTVSPost2010Prop37
 90
       50
102
RTVSPost2010PropOp37
 70
     1
102
RTVSPost2010Prop38
140
0.0
102
RTVSPost2010PropOp38
 70
     1
102
RTVSPost2010Prop39
140
1.0
102
RTVSPost2010PropOp39
 70
     1
102
RTVSPost2010Prop40
 90
        0
102
RTVSPost2010PropOp40
 70
     1
102
RTVSPost2010Prop41ColorIndex
 90
       18
102
RTVSPost2010Prop41ColorRGB
 90
        0
102
RTVSPost2010PropOp41
 70
     1
102
RTVSPost2010Prop42
 90
       50
102
RTVSPost2010PropOp42
 70
     1
102
RTVSPost2010Prop43
 90
        3
102
RTVSPost2010PropOp43
 70
     1
102
RTVSPost2010Prop44ColorIndex
 90
        5
102
RTVSPost2010Prop44ColorRGB
 90
      255
102
RTVSPost2010PropOp44
 70
     1
102
RTVSPost2010Prop45
280
     0
102
RTVSPost2010PropOp45
 70
     1
102
RTVSPost2010Prop46
 90
       50
102
RTVSPost2010PropOp46
 70
     1
102
RTVSPost2010Prop47
 90
       50
102
RTVSPost2010PropOp47
 70
     1
102
RTVSPost2010Prop48
 90
       50
102
RTVSPost2010PropOp48
 70
     1
102
RTVSPost2010Prop49
280
     0
102
RTVSPost2010PropOp49
 70
     1
102
RTVSPost2010Prop50
 90
       50
102
RTVSPost2010PropOp50
 70
     1
102
RTVSPost2010Prop51ColorIndex
 90
      256
102
RTVSPost2010Prop51ColorRGB
 90
-16777216
102
RTVSPost2010PropOp51
 70
     0
102
RTVSPost2010Prop52
140
1.0
102
RTVSPost2010PropOp52
 70
     0
102
RTVSPost2010Prop53
 90
        2
102
RTVSPost2010PropOp53
 70
     1
102
RTVSPost2010Prop54
  1
strokes_ogs.tif
102
RTVSPost2010PropOp54
 70
     1
102
RTVSPost2010Prop55
280
     0
102
RTVSPost2010PropOp55
 70
     1
102
RTVSPost2010Prop56
140
1.0
102
RTVSPost2010PropOp56
 70
     1
102
RTVSPost2010Prop57
140
1.0
102
RTVSPost2010PropOp57
 70
     1
  0
XRECORD
  5
962
102
{ACAD_REACTORS
330
961
102
}
330
961
100
AcDbXrecord
280
     1
102
RTVSPost2010Prop28
280
     0
102
RTVSPost2010PropOp28
 70
     1
102
RTVSPost2010Prop29
280
     1
102
RTVSPost2010PropOp29
 70
     1
102
RTVSPost2010Prop30
280
     1
102
RTVSPost2010PropOp30
 70
     1
102
RTVSPost2010Prop31
280
     0
102
RTVSPost2010PropOp31
 70
     1
102
RTVSPost2010Prop32
280
     0
102
RTVSPost2010PropOp32
 70
     1
102
RTVSPost2010Prop33
280
     0
102
RTVSPost2010PropOp33
 70
     1
102
RTVSPost2010Prop34
280
     0
102
RTVSPost2010PropOp34
 70
     1
102
RTVSPost2010Prop35
280
     0
102
RTVSPost2010PropOp35
 70
     1
102
RTVSPost2010Prop36
280
     0
102
RTVSPost2010PropOp36
 70
     1
102
RTVSPost2010Prop37
 90
       50
102
RTVSPost2010PropOp37
 70
     1
102
RTVSPost2010Prop38
140
0.0
102
RTVSPost2010PropOp38
 70
     1
102
RTVSPost2010Prop39
140
1.0
102
RTVSPost2010PropOp39
 70
     1
102
RTVSPost2010Prop40
 90
        0
102
RTVSPost2010PropOp40
 70
     1
102
RTVSPost2010Prop41ColorIndex
 90
       18
102
RTVSPost2010Prop41ColorRGB
 90
        0
102
RTVSPost2010PropOp41
 70
     1
102
RTVSPost2010Prop42
 90
       50
102
RTVSPost2010PropOp42
 70
     1
102
RTVSPost2010Prop43
 90
        3
102
RTVSPost2010PropOp43
 70
     1
102
RTVSPost2010Prop44ColorIndex
 90
        5
102
RTVSPost2010Prop44ColorRGB
 90
      255
102
RTVSPost2010PropOp44
 70
     1
102
RTVSPost2010Prop45
280
     0
102
RTVSPost2010PropOp45
 70
     1
102
RTVSPost2010Prop46
 90
       50
102
RTVSPost2010PropOp46
 70
     1
102
RTVSPost2010Prop47
 90
       50
102
RTVSPost2010PropOp47
 70
     1
102
RTVSPost2010Prop48
 90
       50
102
RTVSPost2010PropOp48
 70
     1
102
RTVSPost2010Prop49
280
     0
102
RTVSPost2010PropOp49
 70
     1
102
RTVSPost2010Prop50
 90
       50
102
RTVSPost2010PropOp50
 70
     1
102
RTVSPost2010Prop51ColorIndex
 90
      256
102
RTVSPost2010Prop51ColorRGB
 90
-16777216
102
RTVSPost2010PropOp51
 70
     0
102
RTVSPost2010Prop52
140
1.0
102
RTVSPost2010PropOp52
 70
     0
102
RTVSPost2010Prop53
 90
        2
102
RTVSPost2010PropOp53
 70
     1
102
RTVSPost2010Prop54
  1
strokes_ogs.tif
102
RTVSPost2010PropOp54
 70
     1
102
RTVSPost2010Prop55
280
     0
102
RTVSPost2010PropOp55
 70
     1
102
RTVSPost2010Prop56
140
1.0
102
RTVSPost2010PropOp56
 70
     1
102
RTVSPost2010Prop57
140
1.0
102
RTVSPost2010PropOp57
 70
     1
  0
XRECORD
  5
964
102
{ACAD_REACTORS
330
963
102
}
330
963
100
AcDbXrecord
280
     1
102
RTVSPost2010Prop28
280
     0
102
RTVSPost2010PropOp28
 70
     1
102
RTVSPost2010Prop29
280
     1
102
RTVSPost2010PropOp29
 70
     1
102
RTVSPost2010Prop30
280
     1
102
RTVSPost2010PropOp30
 70
     1
102
RTVSPost2010Prop31
280
     0
102
RTVSPost2010PropOp31
 70
     1
102
RTVSPost2010Prop32
280
     0
102
RTVSPost2010PropOp32
 70
     1
102
RTVSPost2010Prop33
280
     0
102
RTVSPost2010PropOp33
 70
     1
102
RTVSPost2010Prop34
280
     0
102
RTVSPost2010PropOp34
 70
     1
102
RTVSPost2010Prop35
280
     0
102
RTVSPost2010PropOp35
 70
     1
102
RTVSPost2010Prop36
280
     0
102
RTVSPost2010PropOp36
 70
     1
102
RTVSPost2010Prop37
 90
       50
102
RTVSPost2010PropOp37
 70
     1
102
RTVSPost2010Prop38
140
0.0
102
RTVSPost2010PropOp38
 70
     1
102
RTVSPost2010Prop39
140
1.0
102
RTVSPost2010PropOp39
 70
     1
102
RTVSPost2010Prop40
 90
        0
102
RTVSPost2010PropOp40
 70
     1
102
RTVSPost2010Prop41ColorIndex
 90
       18
102
RTVSPost2010Prop41ColorRGB
 90
        0
102
RTVSPost2010PropOp41
 70
     1
102
RTVSPost2010Prop42
 90
       50
102
RTVSPost2010PropOp42
 70
     1
102
RTVSPost2010Prop43
 90
        3
102
RTVSPost2010PropOp43
 70
     1
102
RTVSPost2010Prop44ColorIndex
 90
        5
102
RTVSPost2010Prop44ColorRGB
 90
      255
102
RTVSPost2010PropOp44
 70
     1
102
RTVSPost2010Prop45
280
     0
102
RTVSPost2010PropOp45
 70
     1
102
RTVSPost2010Prop46
 90
       50
102
RTVSPost2010PropOp46
 70
     1
102
RTVSPost2010Prop47
 90
       50
102
RTVSPost2010PropOp47
 70
     1
102
RTVSPost2010Prop48
 90
       50
102
RTVSPost2010PropOp48
 70
     1
102
RTVSPost2010Prop49
280
     0
102
RTVSPost2010PropOp49
 70
     1
102
RTVSPost2010Prop50
 90
       50
102
RTVSPost2010PropOp50
 70
     1
102
RTVSPost2010Prop51ColorIndex
 90
      256
102
RTVSPost2010Prop51ColorRGB
 90
-16777216
102
RTVSPost2010PropOp51
 70
     0
102
RTVSPost2010Prop52
140
1.0
102
RTVSPost2010PropOp52
 70
     0
102
RTVSPost2010Prop53
 90
        2
102
RTVSPost2010PropOp53
 70
     1
102
RTVSPost2010Prop54
  1
strokes_ogs.tif
102
RTVSPost2010PropOp54
 70
     1
102
RTVSPost2010Prop55
280
     0
102
RTVSPost2010PropOp55
 70
     1
102
RTVSPost2010Prop56
140
1.0
102
RTVSPost2010PropOp56
 70
     1
102
RTVSPost2010Prop57
140
1.0
102
RTVSPost2010PropOp57
 70
     1
  0
XRECORD
  5
954
102
{ACAD_REACTORS
330
953
102
}
330
953
100
AcDbXrecord
280
     1
102
RTVSPost2010Prop28
280
     0
102
RTVSPost2010PropOp28
 70
     1
102
RTVSPost2010Prop29
280
     1
102
RTVSPost2010PropOp29
 70
     1
102
RTVSPost2010Prop30
280
     1
102
RTVSPost2010PropOp30
 70
     1
102
RTVSPost2010Prop31
280
     0
102
RTVSPost2010PropOp31
 70
     1
102
RTVSPost2010Prop32
280
     0
102
RTVSPost2010PropOp32
 70
     1
102
RTVSPost2010Prop33
280
     0
102
RTVSPost2010PropOp33
 70
     1
102
RTVSPost2010Prop34
280
     0
102
RTVSPost2010PropOp34
 70
     1
102
RTVSPost2010Prop35
280
     0
102
RTVSPost2010PropOp35
 70
     1
102
RTVSPost2010Prop36
280
     0
102
RTVSPost2010PropOp36
 70
     1
102
RTVSPost2010Prop37
 90
       50
102
RTVSPost2010PropOp37
 70
     1
102
RTVSPost2010Prop38
140
0.0
102
RTVSPost2010PropOp38
 70
     1
102
RTVSPost2010Prop39
140
1.0
102
RTVSPost2010PropOp39
 70
     1
102
RTVSPost2010Prop40
 90
        0
102
RTVSPost2010PropOp40
 70
     1
102
RTVSPost2010Prop41ColorIndex
 90
       18
102
RTVSPost2010Prop41ColorRGB
 90
        0
102
RTVSPost2010PropOp41
 70
     1
102
RTVSPost2010Prop42
 90
       50
102
RTVSPost2010PropOp42
 70
     1
102
RTVSPost2010Prop43
 90
        3
102
RTVSPost2010PropOp43
 70
     1
102
RTVSPost2010Prop44ColorIndex
 90
        5
102
RTVSPost2010Prop44ColorRGB
 90
      255
102
RTVSPost2010PropOp44
 70
     1
102
RTVSPost2010Prop45
280
     0
102
RTVSPost2010PropOp45
 70
     1
102
RTVSPost2010Prop46
 90
       50
102
RTVSPost2010PropOp46
 70
     1
102
RTVSPost2010Prop47
 90
       50
102
RTVSPost2010PropOp47
 70
     1
102
RTVSPost2010Prop48
 90
       50
102
RTVSPost2010PropOp48
 70
     1
102
RTVSPost2010Prop49
280
     0
102
RTVSPost2010PropOp49
 70
     1
102
RTVSPost2010Prop50
 90
       50
102
RTVSPost2010PropOp50
 70
     1
102
RTVSPost2010Prop51ColorIndex
 90
      256
102
RTVSPost2010Prop51ColorRGB
 90
-16777216
102
RTVSPost2010PropOp51
 70
     0
102
RTVSPost2010Prop52
140
1.0
102
RTVSPost2010PropOp52
 70
     0
102
RTVSPost2010Prop53
 90
        2
102
RTVSPost2010PropOp53
 70
     1
102
RTVSPost2010Prop54
  1
strokes_ogs.tif
102
RTVSPost2010PropOp54
 70
     1
102
RTVSPost2010Prop55
280
     0
102
RTVSPost2010PropOp55
 70
     1
102
RTVSPost2010Prop56
140
1.0
102
RTVSPost2010PropOp56
 70
     1
102
RTVSPost2010Prop57
140
1.0
102
RTVSPost2010PropOp57
 70
     1
  0
XRECORD
  5
946
102
{ACAD_REACTORS
330
945
102
}
330
945
100
AcDbXrecord
280
     1
102
RTVSPost2010Prop28
280
     0
102
RTVSPost2010PropOp28
 70
     1
102
RTVSPost2010Prop29
280
     1
102
RTVSPost2010PropOp29
 70
     1
102
RTVSPost2010Prop30
280
     1
102
RTVSPost2010PropOp30
 70
     1
102
RTVSPost2010Prop31
280
     0
102
RTVSPost2010PropOp31
 70
     1
102
RTVSPost2010Prop32
280
     0
102
RTVSPost2010PropOp32
 70
     1
102
RTVSPost2010Prop33
280
     0
102
RTVSPost2010PropOp33
 70
     1
102
RTVSPost2010Prop34
280
     0
102
RTVSPost2010PropOp34
 70
     1
102
RTVSPost2010Prop35
280
     0
102
RTVSPost2010PropOp35
 70
     1
102
RTVSPost2010Prop36
280
     0
102
RTVSPost2010PropOp36
 70
     1
102
RTVSPost2010Prop37
 90
       50
102
RTVSPost2010PropOp37
 70
     1
102
RTVSPost2010Prop38
140
0.0
102
RTVSPost2010PropOp38
 70
     1
102
RTVSPost2010Prop39
140
1.0
102
RTVSPost2010PropOp39
 70
     1
102
RTVSPost2010Prop40
 90
        0
102
RTVSPost2010PropOp40
 70
     1
102
RTVSPost2010Prop41ColorIndex
 90
       18
102
RTVSPost2010Prop41ColorRGB
 90
        0
102
RTVSPost2010PropOp41
 70
     1
102
RTVSPost2010Prop42
 90
       50
102
RTVSPost2010PropOp42
 70
     1
102
RTVSPost2010Prop43
 90
        3
102
RTVSPost2010PropOp43
 70
     1
102
RTVSPost2010Prop44ColorIndex
 90
        5
102
RTVSPost2010Prop44ColorRGB
 90
      255
102
RTVSPost2010PropOp44
 70
     1
102
RTVSPost2010Prop45
280
     0
102
RTVSPost2010PropOp45
 70
     1
102
RTVSPost2010Prop46
 90
       50
102
RTVSPost2010PropOp46
 70
     1
102
RTVSPost2010Prop47
 90
       50
102
RTVSPost2010PropOp47
 70
     1
102
RTVSPost2010Prop48
 90
       50
102
RTVSPost2010PropOp48
 70
     1
102
RTVSPost2010Prop49
280
     0
102
RTVSPost2010PropOp49
 70
     1
102
RTVSPost2010Prop50
 90
       50
102
RTVSPost2010PropOp50
 70
     1
102
RTVSPost2010Prop51ColorIndex
 90
      256
102
RTVSPost2010Prop51ColorRGB
 90
-16777216
102
RTVSPost2010PropOp51
 70
     0
102
RTVSPost2010Prop52
140
1.0
102
RTVSPost2010PropOp52
 70
     0
102
RTVSPost2010Prop53
 90
        2
102
RTVSPost2010PropOp53
 70
     1
102
RTVSPost2010Prop54
  1
strokes_ogs.tif
102
RTVSPost2010PropOp54
 70
     1
102
RTVSPost2010Prop55
280
     0
102
RTVSPost2010PropOp55
 70
     1
102
RTVSPost2010Prop56
140
1.0
102
RTVSPost2010PropOp56
 70
     1
102
RTVSPost2010Prop57
140
1.0
102
RTVSPost2010PropOp57
 70
     1
  0
XRECORD
  5
966
102
{ACAD_REACTORS
330
965
102
}
330
965
100
AcDbXrecord
280
     1
102
RTVSPost2010Prop28
280
     0
102
RTVSPost2010PropOp28
 70
     1
102
RTVSPost2010Prop29
280
     1
102
RTVSPost2010PropOp29
 70
     1
102
RTVSPost2010Prop30
280
     1
102
RTVSPost2010PropOp30
 70
     1
102
RTVSPost2010Prop31
280
     0
102
RTVSPost2010PropOp31
 70
     1
102
RTVSPost2010Prop32
280
     0
102
RTVSPost2010PropOp32
 70
     1
102
RTVSPost2010Prop33
280
     0
102
RTVSPost2010PropOp33
 70
     1
102
RTVSPost2010Prop34
280
     0
102
RTVSPost2010PropOp34
 70
     1
102
RTVSPost2010Prop35
280
     0
102
RTVSPost2010PropOp35
 70
     1
102
RTVSPost2010Prop36
280
     0
102
RTVSPost2010PropOp36
 70
     1
102
RTVSPost2010Prop37
 90
       50
102
RTVSPost2010PropOp37
 70
     1
102
RTVSPost2010Prop38
140
0.0
102
RTVSPost2010PropOp38
 70
     1
102
RTVSPost2010Prop39
140
1.0
102
RTVSPost2010PropOp39
 70
     1
102
RTVSPost2010Prop40
 90
        0
102
RTVSPost2010PropOp40
 70
     1
102
RTVSPost2010Prop41ColorIndex
 90
       18
102
RTVSPost2010Prop41ColorRGB
 90
        0
102
RTVSPost2010PropOp41
 70
     1
102
RTVSPost2010Prop42
 90
       50
102
RTVSPost2010PropOp42
 70
     1
102
RTVSPost2010Prop43
 90
        3
102
RTVSPost2010PropOp43
 70
     1
102
RTVSPost2010Prop44ColorIndex
 90
        5
102
RTVSPost2010Prop44ColorRGB
 90
      255
102
RTVSPost2010PropOp44
 70
     1
102
RTVSPost2010Prop45
280
     0
102
RTVSPost2010PropOp45
 70
     1
102
RTVSPost2010Prop46
 90
       50
102
RTVSPost2010PropOp46
 70
     1
102
RTVSPost2010Prop47
 90
       50
102
RTVSPost2010PropOp47
 70
     1
102
RTVSPost2010Prop48
 90
       50
102
RTVSPost2010PropOp48
 70
     1
102
RTVSPost2010Prop49
280
     0
102
RTVSPost2010PropOp49
 70
     1
102
RTVSPost2010Prop50
 90
       50
102
RTVSPost2010PropOp50
 70
     1
102
RTVSPost2010Prop51ColorIndex
 90
      256
102
RTVSPost2010Prop51ColorRGB
 90
-16777216
102
RTVSPost2010PropOp51
 70
     0
102
RTVSPost2010Prop52
140
1.0
102
RTVSPost2010PropOp52
 70
     0
102
RTVSPost2010Prop53
 90
        2
102
RTVSPost2010PropOp53
 70
     1
102
RTVSPost2010Prop54
  1
strokes_ogs.tif
102
RTVSPost2010PropOp54
 70
     1
102
RTVSPost2010Prop55
280
     0
102
RTVSPost2010PropOp55
 70
     1
102
RTVSPost2010Prop56
140
1.0
102
RTVSPost2010PropOp56
 70
     1
102
RTVSPost2010Prop57
140
1.0
102
RTVSPost2010PropOp57
 70
     1
  0
ENDSEC
  0
EOF
